img image001 image001 image001 image001 image001 image001 image001 image001 image001 image001 image001 image001 image001 image001 image001

Planets Sun Sun Sun
Статистика раздачи
Автор: Nickolas3434 | Размер: 5.33 ГБ | Добавлен: 28 апр 2014
Раздают: 19    Качают: 23
Скачать торрент
Скачать торрент
Описание торрента

СообщениеДобавлено: 28 апр 2014 


Страна: США, Канада / 9 Story Entertainment, DHX Media, Hasbro Studios, Paul & Joe Productions, Studio B Productions

Жанр: мультфильм, комедия, семейный
Год выпуска: 2010 - 2011
Продолжительность: ~00:26:00 / серия

Перевод: Профессиональный (дублированный)
Cубтитры: нет
Оригинальная аудиодорожка: нет

Режиссер: Йос Хамфей / Jos Humphrey, Грег Салливан / Greg Sullivan, Тим Стаби / Tim Stuby

В главных ролях: Эрик МакКормак, Джон Ди Маджио, Аланна Юбак, Иветт Николь Браун, Майкл Рапапорт, Рене Обержонуа, М. Эммет Уолш, Элизабет Дэйли, Брук Л. Голднер, Кри Саммер...

Описание: Каждому хозяину — по щенку и каждому щенку — по хозяину! Таков девиз Счастливчика и его команды. Эти отважные собаки из приюта N 17 поклялись находить дом каждому одинокому щенку, которого встретят. Они только выглядят обычными собаками — на самом деле это спасательная группа, база которой расположена глубоко под территорией собачьей площадки.
И пока директор приюта остается в неведении, в подземных ходах, нашпигованных современным оборудованием, кипит работа! И каждый раз, когда очередной щенок обретает любящего хозяина, спасители дарят ему на память фирменный медальон в форме собачьей будки. Иногда собака — лучший друг собаки!



Качество: DVDRip / 4 x DVD9 R5
Формат: AVI

Видео: 720x400 (16:9), 25.000 fps, XviD ~ 1800 kbps avg, 0.250 bit/pixel
Аудио: 48 kHz, Dolby AC3, 2 ch, 192 kbps, русский

Раздача от:


Выпуск 1 (2010)
01. Хозяин для Нытика
02. Кошмар на улице Паунд
03. Попрыгунья
04. Генерал
05. Принц и уличный пес

Выпуск 2 (2010-2011)
01. Кошки против собак
02. Помойка
03. Моя прекрасная Попрыгунья
04. Пятерняшки

Выпуск 3 (2011)
01. Цирковая собака
02. Назад в приют
03. Бунтарь без ошейника
04. Табу
05. Тойшико, говорящая собака-друг

Выпуск 4 (2011)
01. Золтрон
02. Очень странная собака
03. До скостной встречи
04. Снежное задание

Внимание! Раздача ведётся путём добавления новых серий; при каждом добавлении создаётся новый торрент-файл. Чтобы начать докачку новой серии, пользователям необходимо сделать следующее:
(1) остановить скачивание;
(2) удалить старый торрент-файл у себя из клиента (старые серии удалять не надо);
(3) скачать новый торрент-файл и запустить его у себя в клиенте вместо старого, при этом указать клиенту путь в старую папку, куда и должно происходить скачивание новых серий.
Ваш клиент при этом должен произвести хеширование (проверку) старой папки (если он не производит проверку сам – помогите ему сделать это), и будет докачивать только те серии, которых у вас ещё нет. Старые серии при этом не удаляются, а продолжают раздаваться!
Если вы уже удалили старые серии, то предотвратить повторную закачку старых серий можно, отжав галочку в соответствующих местах при запуске нового торрент-файла. Желательно старые серии не удалять как можно дольше, чтобы релизёр не столько продолжал раздавать старые серии, а смог сконцентрироваться на новых.

Общее
Полное имя : Shenki.iz.piyuta.17.D.DVDRip_[New-Team]_by_avprohVipusk011.avi
Формат : AVI
Формат/Информация : Audio Video Interleave
Размер файла : 302 Мбайт
Продолжительность : 21 м.
Общий поток : 2002 Кбит/сек
Программа кодирования : VirtualDubMod 1.5.10.3 | www.virtualdub-fr.org || (build 2550/release)
Библиотека кодирования : VirtualDubMod build 2550/release

Видео
Идентификатор : 0
Формат : MPEG-4 Visual
Профиль формата : Advanced Simple@L5
Параметр BVOP формата : 1
Параметр QPel формата : Нет
Параметр GMC формата : Без точки перехода
Параметр матрицы формата : Выборочная
Идентификатор кодека : XVID
Идентификатор кодека/Подсказка : XviD
Продолжительность : 21 м.
Битрейт : 1800 Кбит/сек
Ширина : 720 пикселей
Высота : 400 пикселей
Соотношение сторон : 16:9
Частота кадров : 25,000 кадров/сек
Цветовое пространство : YUV
Субдискретизация насыщенности : 4:2:0
Битовая глубина : 8 бит
Тип развёртки : Прогрессивная
Метод сжатия : С потерями
Бит/(Пиксели*Кадры) : 0.250
Размер потока : 272 Мбайт (90%)
Библиотека кодирования : XviD 73

Аудио
Идентификатор : 1
Формат : AC-3
Формат/Информация : Audio Coding 3
Расширение режима : CM (complete main)
Параметр Endianness формата : Big
Идентификатор кодека : 2000
Продолжительность : 21 м.
Вид битрейта : Постоянный
Битрейт : 192 Кбит/сек
Каналы : 2 канала
Расположение каналов : Front: L R
Частота : 48,0 КГц
Битовая глубина : 16 бит
Метод сжатия : С потерями
Размер потока : 29,0 Мбайт (10%)
Выравнивание : Разделение по промежуткам
Продолжительность промежутка : 40 мс. (1,00 видеокадр)
Время предзагрузки промежутка : 500 мс.





   Похожие торренты   Торрент   Размер 
В этой теме нет новых непрочитанных сообщений. Щенки из приюта № 17 / Pound Puppies [01-18 из 26] (2010) DVDRip-AVC от New-Team | D | лицензия

16 | 24

5.33 ГБ

В этой теме нет новых непрочитанных сообщений. Щенки из приюта № 17 / Pound Puppies [01-26 из 26] (2010-2012) DVDRip-AVC от New-Team | D | лицензия

15 | 6

7.7 ГБ

В этой теме нет новых непрочитанных сообщений. Щенки из приюта № 17 / Pound Puppies [01x01-26 из 26] (2010-2012) DVDRip от New-Team | D | лицензия

10 | 8

7.69 ГБ

В этой теме нет новых непрочитанных сообщений. Щенки из приюта № 17 / Pound Puppies [01-18 из 26] (2010) 4xDVD9 R5 от New-Team | D | лицензия

5 | 10

22.67 ГБ

В этой теме нет новых непрочитанных сообщений. Щенки из приюта № 17 / Pound Puppies [01-26 из 26] (2010-2012) 6xDVD9 от New-Team | D | Лицензия

6 | 6

32.91 ГБ

В этой теме нет новых непрочитанных сообщений. Animal Planet: Дорога из приюта / Pound Pups to Dog Stars [01-10] (2013) SATRip от HitWay | P1

9 | 44

2.55 ГБ

В этой теме нет новых непрочитанных сообщений. Animal Planet: Дорога из приюта / Pound Pups to Dog Stars [01-02] (2013) SATRip от HitWay | P1

10 | 6

524.59 МБ




Вы не можете начинать темы
Вы не можете отвечать на сообщения
Вы не можете редактировать свои сообщения
Вы не можете удалять свои сообщения
Вы не можете добавлять вложения

Перейти:  
Для Мосгорсуда, Роскомнадзора и рекламодателей: mosgorsud-torrent[собачка]yandex.ru
 Вход
ppkBB3cker v.2 © 2008-2014 @ PPK
[ Time : 0.060s | 15 Queries | GZIP : Off ]

Торрент трекер RUTOR.IN, Не можете зайти на rutor.org? Какой новый адрес рутор? Какое зеркало рутор? Не работает rutor.org и зеркала? Тогда наш торрент специально для вас. Rutor.in неофициальное зеркало rutor. В случае если у Вас заблокирован rutor или вдруг Вы не можете на него зайти, то Вы без труда сможете скачать бесплатно и без рекламы последние новинки кино, игр, сериалов и прочего у нас, на Rutor.in. Не нужно использовать прокси, чтобы зайти на рутор, достаточно воспользоваться нашим ресурсом. Все новые фильмы, игры, сериалы, книги и музыка за 2013 и 2014 годы через торрент бесплатно. Скачивайте фильмы в хорошем качестве, игры для пк, xbox, playstation без регистрации. У нас вы найдете новые Зарубежные сериалы и Русские сериалы 2013, 2014, 2015 годов. Оставайтесь с нами, качайте любимые фильмы, игры, сериалы, книги и музыку.