img image001 image001 image001 image001 image001 image001 image001 image001 image001 image001 image001 image001 image001 image001 image001

Planets Sun Sun Sun
Статистика раздачи
Автор: Nickolas3434 | Размер: 5.33 ГБ | Добавлен: 29 апр 2014
Раздают: 16    Качают: 24
Скачать торрент
Скачать торрент
Описание торрента

СообщениеДобавлено: 29 апр 2014 


Страна: США, Канада / 9 Story Entertainment, DHX Media, Hasbro Studios, Paul & Joe Productions, Studio B Productions

Жанр: мультфильм, комедия, семейный
Год выпуска: 2010 - 2011
Продолжительность: ~00:21:00 / серия

Перевод: Профессиональный (дублированный)
Cубтитры: нет
Оригинальная аудиодорожка: нет

Режиссер: Йос Хамфей / Jos Humphrey, Грег Салливан / Greg Sullivan, Тим Стаби / Tim Stuby

В главных ролях: Эрик МакКормак, Джон Ди Маджио, Аланна Юбак, Иветт Николь Браун, Майкл Рапапорт, Рене Обержонуа, М. Эммет Уолш, Элизабет Дэйли, Брук Л. Голднер, Кри Саммер...

Описание: Каждому хозяину — по щенку и каждому щенку — по хозяину! Таков девиз Счастливчика и его команды. Эти отважные собаки из приюта N 17 поклялись находить дом каждому одинокому щенку, которого встретят. Они только выглядят обычными собаками — на самом деле это спасательная группа, база которой расположена глубоко под территорией собачьей площадки.
И пока директор приюта остается в неведении, в подземных ходах, нашпигованных современным оборудованием, кипит работа! И каждый раз, когда очередной щенок обретает любящего хозяина, спасители дарят ему на память фирменный медальон в форме собачьей будки. Иногда собака — лучший друг собаки!



Качество: DVDRip-AVC / 4 x DVD9 R5
Формат: MKV

Видео: 720x572@1024x572 (16:9), 25.000 fps, MPEG-4 AVC ~ 1807 kbps avg, 0.176 bit/pixel
Аудио: 48 kHz, Dolby AC3, 2 ch, 192 kbps, русский

Раздача от:


Выпуск 1 (2010)
01. Хозяин для Нытика
02. Кошмар на улице Паунд
03. Попрыгунья
04. Генерал
05. Принц и уличный пес

Выпуск 2 (2010-2011)
01. Кошки против собак
02. Помойка
03. Моя прекрасная Попрыгунья
04. Пятерняшки

Выпуск 3 (2011)
01. Цирковая собака
02. Назад в приют
03. Бунтарь без ошейника
04. Табу
05. Тойшико, говорящая собака-друг

Выпуск 4 (2011)
01. Золтрон
02. Очень странная собака
03. До скостной встречи
04. Снежное задание

Внимание! Раздача ведётся путём добавления новых серий; при каждом добавлении создаётся новый торрент-файл. Чтобы начать докачку новой серии, пользователям необходимо сделать следующее:
(1) остановить скачивание;
(2) удалить старый торрент-файл у себя из клиента (старые серии удалять не надо);
(3) скачать новый торрент-файл и запустить его у себя в клиенте вместо старого, при этом указать клиенту путь в старую папку, куда и должно происходить скачивание новых серий.
Ваш клиент при этом должен произвести хеширование (проверку) старой папки (если он не производит проверку сам – помогите ему сделать это), и будет докачивать только те серии, которых у вас ещё нет. Старые серии при этом не удаляются, а продолжают раздаваться!
Если вы уже удалили старые серии, то предотвратить повторную закачку старых серий можно, отжав галочку в соответствующих местах при запуске нового торрент-файла. Желательно старые серии не удалять как можно дольше, чтобы релизёр не столько продолжал раздавать старые серии, а смог сконцентрироваться на новых.

Общее
Полное имя : Shenki.iz.piyuta.17.D.DVDRip-AVC_[New-Team]_by_avprohVipusk011.mkv
Формат : Matroska
Версия формата : Version 2
Размер файла : 303 Мбайт
Продолжительность : 21 м.
Общий поток : 2005 Кбит/сек
Дата кодирования : UTC 2014-04-27 00:23:06
Программа кодирования : mkvmerge v6.1.0 ('Old Devil') built on Mar 4 2013 09:10:42
Библиотека кодирования : libebml v1.3.0 + libmatroska v1.4.0

Видео
Идентификатор : 1
Формат : AVC
Формат/Информация : Advanced Video Codec
Профиль формата : High@L4.1
Параметр CABAC формата : Да
Параметр ReFrames формата : 8 кадров
Идентификатор кодека : V_MPEG4/ISO/AVC
Продолжительность : 21 м.
Битрейт : 1807 Кбит/сек
Ширина : 720 пикселей
Высота : 572 пикселя
Соотношение сторон : 16:9
Режим частоты кадров : Постоянный
Частота кадров : 25,000 кадров/сек
Цветовое пространство : YUV
Субдискретизация насыщенности : 4:2:0
Битовая глубина : 8 бит
Тип развёртки : Прогрессивная
Бит/(Пиксели*Кадры) : 0.176
Размер потока : 268 Мбайт (88%)
Библиотека кодирования : x264 core 138 r2356 a1d3d17
Настройки программы : cabac=1 / ref=8 / deblock=1:-2:-1 / analyse=0x3:0x113 / me=umh / subme=10 / psy=1 / psy_rd=1.00:0.05 / mixed_ref=1 / me_range=32 / chroma_me=1 / trellis=2 / 8x8dct=1 / cqm=0 / deadzone=21,11 / fast_pskip=0 / chroma_qp_offset=-3 / threads=9 / lookahead_threads=1 / sliced_threads=0 / nr=0 / decimate=0 / interlaced=0 / bluray_compat=0 / constrained_intra=0 / bframes=8 / b_pyramid=2 / b_adapt=2 / b_bias=0 / direct=3 / weightb=1 / open_gop=0 / weightp=2 / keyint=250 / keyint_min=25 / scenecut=40 / intra_refresh=0 / rc=2pass / mbtree=0 / bitrate=1807 / ratetol=1.0 / qcomp=0.60 / qpmin=0 / qpmax=69 / qpstep=4 / cplxblur=20.0 / qblur=0.5 / ip_ratio=1.40 / pb_ratio=1.30 / aq=1:1.00
Default : Да
Forced : Нет

Аудио
Идентификатор : 2
Формат : AC-3
Формат/Информация : Audio Coding 3
Расширение режима : CM (complete main)
Параметр Endianness формата : Big
Идентификатор кодека : A_AC3
Продолжительность : 21 м.
Вид битрейта : Постоянный
Битрейт : 192 Кбит/сек
Каналы : 2 канала
Расположение каналов : Front: L R
Частота : 48,0 КГц
Битовая глубина : 16 бит
Метод сжатия : С потерями
Размер потока : 29,0 Мбайт (10%)
Default : Да
Forced : Нет





   Похожие торренты   Торрент   Размер 
В этой теме нет новых непрочитанных сообщений. Щенки из приюта № 17 / Pound Puppies [01-18 из 26] (2010) DVDRip от New-Team | D | лицензия

19 | 23

5.33 ГБ

В этой теме нет новых непрочитанных сообщений. Щенки из приюта № 17 / Pound Puppies [01-26 из 26] (2010-2012) DVDRip-AVC от New-Team | D | лицензия

15 | 6

7.7 ГБ

В этой теме нет новых непрочитанных сообщений. Щенки из приюта № 17 / Pound Puppies [01x01-26 из 26] (2010-2012) DVDRip от New-Team | D | лицензия

10 | 8

7.69 ГБ

В этой теме нет новых непрочитанных сообщений. Щенки из приюта № 17 / Pound Puppies [01-18 из 26] (2010) 4xDVD9 R5 от New-Team | D | лицензия

5 | 10

22.67 ГБ

В этой теме нет новых непрочитанных сообщений. Щенки из приюта № 17 / Pound Puppies [01-26 из 26] (2010-2012) 6xDVD9 от New-Team | D | Лицензия

6 | 6

32.91 ГБ

В этой теме нет новых непрочитанных сообщений. Animal Planet: Дорога из приюта / Pound Pups to Dog Stars [01-10] (2013) SATRip от HitWay | P1

9 | 44

2.55 ГБ

В этой теме нет новых непрочитанных сообщений. Animal Planet: Дорога из приюта / Pound Pups to Dog Stars [01-02] (2013) SATRip от HitWay | P1

10 | 6

524.59 МБ




Вы не можете начинать темы
Вы не можете отвечать на сообщения
Вы не можете редактировать свои сообщения
Вы не можете удалять свои сообщения
Вы не можете добавлять вложения

Перейти:  
Для Мосгорсуда, Роскомнадзора и рекламодателей: mosgorsud-torrent[собачка]yandex.ru
 Вход
ppkBB3cker v.2 © 2008-2014 @ PPK
[ Time : 0.026s | 15 Queries | GZIP : Off ]

Торрент трекер RUTOR.IN, Не можете зайти на rutor.org? Какой новый адрес рутор? Какое зеркало рутор? Не работает rutor.org и зеркала? Тогда наш торрент специально для вас. Rutor.in неофициальное зеркало rutor. В случае если у Вас заблокирован rutor или вдруг Вы не можете на него зайти, то Вы без труда сможете скачать бесплатно и без рекламы последние новинки кино, игр, сериалов и прочего у нас, на Rutor.in. Не нужно использовать прокси, чтобы зайти на рутор, достаточно воспользоваться нашим ресурсом. Все новые фильмы, игры, сериалы, книги и музыка за 2013 и 2014 годы через торрент бесплатно. Скачивайте фильмы в хорошем качестве, игры для пк, xbox, playstation без регистрации. У нас вы найдете новые Зарубежные сериалы и Русские сериалы 2013, 2014, 2015 годов. Оставайтесь с нами, качайте любимые фильмы, игры, сериалы, книги и музыку.