img image001 image001 image001 image001 image001 image001 image001 image001 image001 image001 image001 image001 image001 image001 image001

Planets Sun Sun Sun
Статистика раздачи
Автор: Nickolas3434 | Размер: 2.03 ГБ | Добавлен: 29 апр 2014
Раздают: 239    Качают: 67
Скачать торрент
Скачать торрент
Описание торрента

СообщениеДобавлено: 29 апр 2014 

Информация о фильме
Название: Сын Бэтмена
Оригинальное название: Son of Batman
Год выхода: 2014
Жанр: мультфильм, фэнтези, боевик, драма, криминал, детектив, приключения, семейный
Режиссер: Этан Сполдинг / Ethan Spaulding
В ролях: Джейсон О’Мара (Bruce Wayne / Batman, озвучка), Томас Гибсон (Slade Wilson / Deathstroke, озвучка), Морена Баккарин (Talia al Ghul, озвучка), Джанкарло Эспозито (Ra's al Ghul, озвучка), Дэвид МакКаллум (Alfred Pennyworth, озвучка), Ксандер Беркли (Kirk Langstrom, озвучка), Шон Маэр (Nightwing, озвучка), Фред Татаскьор (Killer Croc, озвучка), Брюс Томас (Comissioner James Gordon, озвучка), Стюарт Аллан (Damian Wayne, озвучка)

О фильме:
Рас аль Гул тренирует внука в качестве своего преемника. Но когда предатель захватывает Лигу Ассасинов, Талия с Дэмиеном отправляется к Бэтмену, чтобы попросить помощи и познакомить отца с сыном. Отец - Тёмный Рыцарь, стоящий на страже Готэма. Сын - наследник Рас аль Гула, воспитанный и обученный в Лиге Ассасинов. Вместе им предстоит столкнуться с новым главой Лиги. Вот только один хочет спасти мир, а другой - жаждет лишь мести.


Страна: США
Студия: DC Entertainment, Warner Bros. Animation, Warner Premiere
Продолжительность: 01:14:10
Перевод: Любительский (многоголосый закадровый) SkyeFilmTV + Любительский (многоголосый закадровый) DuBDraG ProJECT

Файл
Кодек: h.264 (MKV)
Качество: BDRip 720p
Видео: AVC, 1280x720, ~2700 kbps
Звук: Русский 384 kbps, 6 ch, AC-3 (SkyeFilmTV) / Русский 192 kbps, 2 ch, AC-3 (DuBDraG ProJECT) / Английский 640 kbps, 6 ch, AC3
Субтитры: Русские

Семпл

Общее
Уникальный идентификатор : 174580833055288501369567606633791822683 (0x83570B9FF8C36792A0DD979811951B5B)
Полное имя : D:Сын Бэтмена.mkv
Формат : Matroska
Версия формата : Version 2
Размер файла : 2,03 Гбайт
Длительность : 1 ч. 14 м.
Общий поток : 3917 Кбит/сек
Название фильма : Son.of.Batman.2014
Дата кодирования : UTC 2014-04-27 09:19:01
Программа кодирования : mkvmerge v5.8.0 ('No Sleep / Pillow') built on Sep 2 2012 15:37:04
Библиотека кодирования : libebml v1.2.3 + libmatroska v1.3.0

Видео
Идентификатор : 1
Формат : AVC
Формат/Информация : Advanced Video Кодек
Профиль формата : High@L4.1
Параметр CABAC формата : Да
Параметр ReFrames формата : 5 кадров
Идентификатор кодека : V_MPEG4/ISO/AVC
Длительность : 1 ч. 14 м.
Битрейт : 2700 Кбит/сек
Ширина : 1280 пикселей
Высота : 720 пикселей
Соотношение сторон : 16:9
Режим частоты кадров : Постоянный
Частота кадров : 23,976 кадра/сек
Цветовое пространство : YUV
Субдискретизация насыщенности : 4:2:0
Битовая глубина : 8 бит
Тип развёртки : Прогрессивная
Бит/(Пиксели*Кадры) : 0.122
Размер потока : 1,36 Гбайт (67%)
Библиотека кодирования : x264 core 140 r2377 1ca7bb9
Настройки программы : cabac=1 / ref=5 / deblock=1:0:0 / analyse=0x3:0x133 / me=umh / subme=7 / psy=1 / psy_rd=1.00:0.00 / mixed_ref=1 / me_range=16 / chroma_me=1 / trellis=1 / 8x8dct=1 / cqm=0 / deadzone=21,11 / fast_pskip=0 / chroma_qp_offset=-2 / threads=18 / lookahead_threads=3 / sliced_threads=0 / nr=0 / decimate=1 / interlaced=0 / bluray_compat=0 / constrained_intra=0 / bframes=3 / b_pyramid=2 / b_adapt=1 / b_bias=0 / direct=1 / weightb=1 / open_gop=0 / weightp=2 / keyint=250 / keyint_min=23 / scenecut=40 / intra_refresh=0 / rc_lookahead=40 / rc=2pass / mbtree=1 / bitrate=2700 / ratetol=1.0 / qcomp=0.60 / qpmin=0 / qpmax=69 / qpstep=4 / cplxblur=20.0 / qblur=0.5 / ip_ratio=1.40 / aq=1:1.00
Язык : English
Default : Да
Forced : Нет

Аудио #1
Идентификатор : 2
Формат : AC-3
Формат/Информация : Audio Coding 3
Расширение режима : CM (complete main)
Параметр Endianness формата : Big
Идентификатор кодека : A_AC3
Длительность : 1 ч. 14 м.
Вид битрейта : Постоянный
Битрейт : 384 Кбит/сек
Каналы : 6 каналов
Расположение каналов : Front: L C R, Side: L R, LFE
Частота : 48,0 КГц
Битовая глубина : 16 бит
Метод сжатия : С потерями
Размер потока : 204 Мбайт (10%)
Заголовок : SkyeFilmTV
Язык : Russian
Default : Да
Forced : Нет

Аудио #2
Идентификатор : 3
Формат : AC-3
Формат/Информация : Audio Coding 3
Расширение режима : CM (complete main)
Параметр Endianness формата : Big
Идентификатор кодека : A_AC3
Длительность : 1 ч. 14 м.
Вид битрейта : Постоянный
Битрейт : 192 Кбит/сек
Каналы : 2 канала
Расположение каналов : Front: L R
Частота : 48,0 КГц
Битовая глубина : 16 бит
Метод сжатия : С потерями
Размер потока : 102 Мбайт (5%)
Заголовок : DuBDraG ProJECT
Язык : Russian
Default : Нет
Forced : Нет

Аудио #3
Идентификатор : 4
Формат : AC-3
Формат/Информация : Audio Coding 3
Расширение режима : CM (complete main)
Параметр Endianness формата : Big
Идентификатор кодека : A_AC3
Длительность : 1 ч. 14 м.
Вид битрейта : Постоянный
Битрейт : 640 Кбит/сек
Каналы : 6 каналов
Расположение каналов : Front: L C R, Side: L R, LFE
Частота : 48,0 КГц
Битовая глубина : 16 бит
Метод сжатия : С потерями
Размер потока : 340 Мбайт (16%)
Заголовок : English
Язык : English
Default : Нет
Forced : Нет

Текст
Идентификатор : 5
Формат : ASS
Идентификатор кодека : S_TEXT/ASS
Идентификатор кодека/Информация : Advanced Sub Station Alpha
Метод сжатия : Без потерь
Заголовок : На надписи
Язык : Russian
Default : Да
Forced : Нет

Меню
00:00:00.000 : en:00:00:00.000
00:10:51.359 : en:00:10:51.359
00:20:34.608 : en:00:20:34.608
00:28:57.736 : en:00:28:57.736
00:40:38.394 : en:00:40:38.394
00:50:18.015 : en:00:50:18.015
01:00:21.618 : en:01:00:21.618
01:09:47.642 : en:01:09:47.642



   Похожие торренты   Торрент   Размер 
В этой теме нет новых непрочитанных сообщений. Сын Бэтмена / Son of Batman (2014) BDRip-AVC от potroks | L

143 | 9

1.33 ГБ

В этой теме нет новых непрочитанных сообщений. Сын Бэтмена / Son of Batman (2014) BDRip-AVC | iPad | O

34 | 6

993.71 МБ

В этой теме нет новых непрочитанных сообщений. Сын Бэтмена / Son of Batman (2014) BDRip 720р от fox-torrents | L

179 | 44

2.76 ГБ

В этой теме нет новых непрочитанных сообщений. Сын Бэтмена / Son of Batman (2014) HDRip | L

1225 | 143

1.37 ГБ

В этой теме нет новых непрочитанных сообщений. Берегитесь Бэтмена / Beware the Batman [01x01-19] (2013-2014) WEB-DL 1080p | L1

12 | 38

15.83 ГБ

В этой теме нет новых непрочитанных сообщений. Берегитесь Бэтмена / Beware the Batman [01x01-18] (2013-2014) WEB-DL 1080p | L1

24 | 31

15.02 ГБ

В этой теме нет новых непрочитанных сообщений. Берегитесь Бэтмена / Beware the Batman [01x01-26 из 26] (2013-2014) WEB-DL 1080p | L1

159 | 43

21.41 ГБ




Вы не можете начинать темы
Вы не можете отвечать на сообщения
Вы не можете редактировать свои сообщения
Вы не можете удалять свои сообщения
Вы не можете добавлять вложения

Перейти:  
Для Мосгорсуда, Роскомнадзора и рекламодателей: mosgorsud-torrent[собачка]yandex.ru
 Вход
ppkBB3cker v.2 © 2008-2014 @ PPK
[ Time : 0.045s | 16 Queries | GZIP : Off ]

Торрент трекер RUTOR.IN, Не можете зайти на rutor.org? Какой новый адрес рутор? Какое зеркало рутор? Не работает rutor.org и зеркала? Тогда наш торрент специально для вас. Rutor.in неофициальное зеркало rutor. В случае если у Вас заблокирован rutor или вдруг Вы не можете на него зайти, то Вы без труда сможете скачать бесплатно и без рекламы последние новинки кино, игр, сериалов и прочего у нас, на Rutor.in. Не нужно использовать прокси, чтобы зайти на рутор, достаточно воспользоваться нашим ресурсом. Все новые фильмы, игры, сериалы, книги и музыка за 2013 и 2014 годы через торрент бесплатно. Скачивайте фильмы в хорошем качестве, игры для пк, xbox, playstation без регистрации. У нас вы найдете новые Зарубежные сериалы и Русские сериалы 2013, 2014, 2015 годов. Оставайтесь с нами, качайте любимые фильмы, игры, сериалы, книги и музыку.