img image001 image001 image001 image001 image001 image001 image001 image001 image001 image001 image001 image001 image001 image001 image001

Planets Sun Sun Sun
Статистика раздачи
Автор: Nickolas3434 | Размер: 10.75 ГБ | Добавлен: 30 апр 2014
Раздают: 116    Качают: 18
Скачать торрент
Скачать торрент
Описание торрента

СообщениеДобавлено: 30 апр 2014 

Год выпуска: 2003...
Выпущено: Канада, США / Nickelodeon Studios
Жанр: мультфильм, приключения, семейный
Продолжительность: 32 х ~ 00:24:00

Перевод: Профессиональный (дублированный)
Оригинальная аудиодорожка: нет
Субтитры: нет

Режиссер: Генри Мэдден / Henry Madden, Гари Конрад / Gary Conrad, Кэти МакУэйн / Katie McWane...

Роли озвучивали: Марк Уэйнер, Харрисон Чад, Кэтлин Херлс, Саша Торо, Риган Мизрахи, Александрия Суарез, Эшли Флеминг, Джейк Барбеидж, Хосе Зелайа, Кэйтлин Санчез...

Роли дублировали: Ирина Гришина, Татьяна Весёлкина

Описание: Главные герои сериала — семилетняя американская девочка Даша и ее друзья. Это интерактивный мультфильм, подразумевающий активное участие маленьких зрителей в каждом приключении героев и построенный по типу обучающей компьютерной игры. В каждой серии Даша приглашает зрителей отправиться с ней в поход с конкретной целью. Подруга Даши живая Карта подсказывает маршрут путешествия и остановки в пути. На каждой остановке Даша, ее друзья и зрители сериала должны решить определенную задачу или преодолеть препятствие, чтобы достичь своей цели. В конце каждой серии Даша, ее друзья и зрители хором восклицают: «У нас получилось!» и танцуют особенный танец в честь успешного завершения путешествия. «Даша-следопыт» — это совершенно новый тип обучающего и развивающего мультфильма, прежде всего, потому что в каждой его серии присутствуют игровые и интерактивные моменты. Сериал «Даша-следопыт» учит детей английским словам и фразам, дает им возможность двигаться и помогает им приобрести навыки и уверенность в себе, необходимые для решения любых задач.




Качество: DVDRip (8 x DVD9 R5)
Формат: AVI

Видео: 720x544 (4:3), 25.000 fps, XViD ~ 1800 kbps avg, 0.184 bit/pixel
Аудио: 48 kHz, АС3 2 ch, 192 kbps, русский

Раздача от:


Диск 1: Познакомьтесь с Диего!
01. Познакомьтесь с Диего
02. На Южный полюс
03. Путешествие на Пурпурную планету
04. Спаси щенков

Диск 2: Стихи и загадки
01. Даша и ягненок
02. Корона принца
03. Динозаврик
04. Даша спасает игру

Диск 3: Город потерянных игрушек
01. Город потеряшек
02. Что потом случилось?
03. Спасите-помогите!
04. Плюшевый динозаврик для башмачка

Диск 4: Даша празднует Хеллоуин
01. Хеллоуин
02. Башмачок-бейсболист
03. Почини-машина
04. Лучшие друзья

Диск 5: Вечеринка глупостей
01. Вечеринка глупостей
02. Особый день башмачка
03. Застрявший грузовик
04. Большая картошка

Диск 6: Застенчивая радуга
01. Застенчивая радуга
02. Башмачок, на помощь!
03. Мы - команда!
04. Старшая сестренка Даша

Диск 7: Щенок для Даши
01. У Даши есть щенок
02. Перемешанные сезоны
03. Краб-малыш
04. Жулик-путешественник

Диск 8: Супермалыши
01. Супермалыши
02. Поймай малышей
03. Малыш Ягуар зовет на помощь
04. Первое путешествие Даши

Общее
Полное имя : Dasha-puteshestvennitsa.2003.D.DVDRip_[New-Team]_by_avproh1.Poznakomtes.s.Diego1.avi
Формат : AVI
Формат/Информация : Audio Video Interleave
Размер файла : 343 Мбайт
Продолжительность : 24 м.
Общий поток : 1999 Кбит/сек
Программа кодирования : VirtualDubMod 1.5.10.3 | www.virtualdub-fr.org || (build 2550/release)
Библиотека кодирования : VirtualDubMod build 2550/release

Видео
Идентификатор : 0
Формат : MPEG-4 Visual
Профиль формата : Advanced Simple@L5
Параметр BVOP формата : 1
Параметр QPel формата : Нет
Параметр GMC формата : Без точки перехода
Параметр матрицы формата : Выборочная
Идентификатор кодека : XVID
Идентификатор кодека/Подсказка : XviD
Продолжительность : 24 м.
Битрейт : 1797 Кбит/сек
Ширина : 720 пикселей
Высота : 544 пикселя
Соотношение сторон : 4:3
Частота кадров : 25,000 кадров/сек
Цветовое пространство : YUV
Субдискретизация насыщенности : 4:2:0
Битовая глубина : 8 бит
Тип развёртки : Прогрессивная
Метод сжатия : С потерями
Бит/(Пиксели*Кадры) : 0.184
Размер потока : 309 Мбайт (90%)
Библиотека кодирования : XviD 73

Аудио
Идентификатор : 1
Формат : AC-3
Формат/Информация : Audio Coding 3
Расширение режима : CM (complete main)
Параметр Endianness формата : Big
Идентификатор кодека : 2000
Продолжительность : 24 м.
Вид битрейта : Постоянный
Битрейт : 192 Кбит/сек
Каналы : 2 канала
Расположение каналов : Front: L R
Частота : 48,0 КГц
Битовая глубина : 16 бит
Метод сжатия : С потерями
Размер потока : 33,0 Мбайт (10%)
Выравнивание : Разделение по промежуткам
Продолжительность промежутка : 40 мс. (1,00 видеокадр)
Время предзагрузки промежутка : 500 мс.



Торрент перезалит 29 апреля 2014 года, добавил 4 новые серии



   Похожие торренты   Торрент   Размер 
В этой теме нет новых непрочитанных сообщений. Даша-путешественница / Dora the Explorer [01-28 из ?] (2003...) DVDRip-AVC от New-Team | D | лицензия

73 | 19

9.39 ГБ

В этой теме нет новых непрочитанных сообщений. Даша-путешественница / Dora the Explorer [01-28 из ?] (2003...) DVDRip от New-Team | D | лицензия

281 | 44

9.41 ГБ

В этой теме нет новых непрочитанных сообщений. Даша-путешественница / Dora the Explorer [01-32 из ?] (2003...) DVDRip-AVC от New-Team | D | лицензия

344 | 45

10.73 ГБ

В этой теме нет новых непрочитанных сообщений. Даша-путешественница / Dora the Explorer [01-28] (2003...) 8xDVD5 от New-Team | D | лицензия

4 | 4

32.38 ГБ

В этой теме нет новых непрочитанных сообщений. Даша-путешественница / Dora the Explorer [01-28] (2003) 7xDVD5 от New-Team | D | лицензия

1 | 14

28.39 ГБ

В этой теме нет новых непрочитанных сообщений. Даша-путешественница / Dora the Explorer [01-47] (2003...) 11xDVD5 + DVD9 от New-Team | D | Лицензия

30 | 29

50.02 ГБ

В этой теме нет новых непрочитанных сообщений. Даша-путешественница / Dora the Explorer [S01-05*01-56 из ?] (2000-2010) DVDRip-AVC от New-Team | D | лицензия

376 | 209

18.97 ГБ




Вы не можете начинать темы
Вы не можете отвечать на сообщения
Вы не можете редактировать свои сообщения
Вы не можете удалять свои сообщения
Вы не можете добавлять вложения

Перейти:  
Для Мосгорсуда, Роскомнадзора и рекламодателей: mosgorsud-torrent[собачка]yandex.ru
 Вход
ppkBB3cker v.2 © 2008-2014 @ PPK
[ Time : 0.039s | 18 Queries | GZIP : Off ]

Торрент трекер RUTOR.IN, Не можете зайти на rutor.org? Какой новый адрес рутор? Какое зеркало рутор? Не работает rutor.org и зеркала? Тогда наш торрент специально для вас. Rutor.in неофициальное зеркало rutor. В случае если у Вас заблокирован rutor или вдруг Вы не можете на него зайти, то Вы без труда сможете скачать бесплатно и без рекламы последние новинки кино, игр, сериалов и прочего у нас, на Rutor.in. Не нужно использовать прокси, чтобы зайти на рутор, достаточно воспользоваться нашим ресурсом. Все новые фильмы, игры, сериалы, книги и музыка за 2013 и 2014 годы через торрент бесплатно. Скачивайте фильмы в хорошем качестве, игры для пк, xbox, playstation без регистрации. У нас вы найдете новые Зарубежные сериалы и Русские сериалы 2013, 2014, 2015 годов. Оставайтесь с нами, качайте любимые фильмы, игры, сериалы, книги и музыку.