img image001 image001 image001 image001 image001 image001 image001 image001 image001 image001 image001 image001 image001 image001 image001

Planets Sun Sun Sun
Статистика раздачи
Автор: Nickolas3434 | Размер: 10.73 ГБ | Добавлен: 30 апр 2014
Раздают: 344    Качают: 45
Скачать торрент
Скачать торрент
Описание торрента

СообщениеДобавлено: 30 апр 2014 

Год выпуска: 2003...
Выпущено: Канада, США / Nickelodeon Studios
Жанр: мультфильм, приключения, семейный
Продолжительность: 32 х ~ 00:24:00

Перевод: Профессиональный (дублированный)
Оригинальная аудиодорожка: нет
Субтитры: нет

Режиссер: Генри Мэдден / Henry Madden, Гари Конрад / Gary Conrad, Кэти МакУэйн / Katie McWane...

Роли озвучивали: Марк Уэйнер, Харрисон Чад, Кэтлин Херлс, Саша Торо, Риган Мизрахи, Александрия Суарез, Эшли Флеминг, Джейк Барбеидж, Хосе Зелайа, Кэйтлин Санчез...

Роли дублировали: Ирина Гришина, Татьяна Весёлкина

Описание: Главные герои сериала — семилетняя американская девочка Даша и ее друзья. Это интерактивный мультфильм, подразумевающий активное участие маленьких зрителей в каждом приключении героев и построенный по типу обучающей компьютерной игры. В каждой серии Даша приглашает зрителей отправиться с ней в поход с конкретной целью. Подруга Даши живая Карта подсказывает маршрут путешествия и остановки в пути. На каждой остановке Даша, ее друзья и зрители сериала должны решить определенную задачу или преодолеть препятствие, чтобы достичь своей цели. В конце каждой серии Даша, ее друзья и зрители хором восклицают: «У нас получилось!» и танцуют особенный танец в честь успешного завершения путешествия. «Даша-следопыт» — это совершенно новый тип обучающего и развивающего мультфильма, прежде всего, потому что в каждой его серии присутствуют игровые и интерактивные моменты. Сериал «Даша-следопыт» учит детей английским словам и фразам, дает им возможность двигаться и помогает им приобрести навыки и уверенность в себе, необходимые для решения любых задач.




Качество: DVDRip-AVC (8 x DVD9 R5)
Формат: MKV

Видео: 720x572@768x572 (4:3), 25.000 fps, H264 ~ 1806 kbps avg, 0.175 bit/pixel
Аудио: 48 kHz, АС3 2 ch, 192 kbps, русский

Раздача от:


Диск 1: Познакомьтесь с Диего!
01. Познакомьтесь с Диего
02. На Южный полюс
03. Путешествие на Пурпурную планету
04. Спаси щенков

Диск 2: Стихи и загадки
01. Даша и ягненок
02. Корона принца
03. Динозаврик
04. Даша спасает игру

Диск 3: Город потерянных игрушек
01. Город потеряшек
02. Что потом случилось?
03. Спасите-помогите!
04. Плюшевый динозаврик для башмачка

Диск 4: Даша празднует Хеллоуин
01. Хеллоуин
02. Башмачок-бейсболист
03. Почини-машина
04. Лучшие друзья

Диск 5: Вечеринка глупостей
01. Вечеринка глупостей
02. Особый день башмачка
03. Застрявший грузовик
04. Большая картошка

Диск 6: Застенчивая радуга
01. Застенчивая радуга
02. Башмачок, на помощь!
03. Мы - команда!
04. Старшая сестренка Даша

Диск 7: Щенок для Даши
01. У Даши есть щенок
02. Перемешанные сезоны
03. Краб-малыш
04. Жулик-путешественник

Диск 8: Супермалыши - скоро!!!
01. Супермалыши
02. Поймай малышей
03. Малыш Ягуар зовет на помощь
04. Первое путешествие Даши

Общее
Полное имя : Dasha-puteshestvennitsa.2003.D.DVDRip-AVC_[New-Team]_by_avproh1.Poznakomtes.s.Diego1.mkv
Формат : Matroska
Версия формата : Version 2
Размер файла : 343 Мбайт
Продолжительность : 24 м.
Общий поток : 1999 Кбит/сек
Дата кодирования : UTC 2014-03-20 22:26:33
Программа кодирования : mkvmerge v6.1.0 ('Old Devil') built on Mar 4 2013 09:10:42
Библиотека кодирования : libebml v1.3.0 + libmatroska v1.4.0

Видео
Идентификатор : 1
Формат : AVC
Формат/Информация : Advanced Video Codec
Профиль формата : High@L4.1
Параметр CABAC формата : Да
Параметр ReFrames формата : 6 кадров
Идентификатор кодека : V_MPEG4/ISO/AVC
Продолжительность : 24 м.
Битрейт : 1806 Кбит/сек
Ширина : 720 пикселей
Высота : 572 пикселя
Соотношение сторон : 4:3
Режим частоты кадров : Постоянный
Частота кадров : 25,000 кадров/сек
Цветовое пространство : YUV
Субдискретизация насыщенности : 4:2:0
Битовая глубина : 8 бит
Тип развёртки : Прогрессивная
Бит/(Пиксели*Кадры) : 0.175
Размер потока : 304 Мбайт (88%)
Библиотека кодирования : x264 core 138 r2356 a1d3d17
Настройки программы : cabac=1 / ref=6 / deblock=1:-2:-1 / analyse=0x3:0x113 / me=umh / subme=10 / psy=1 / psy_rd=1.00:0.05 / mixed_ref=1 / me_range=32 / chroma_me=1 / trellis=2 / 8x8dct=1 / cqm=0 / deadzone=21,11 / fast_pskip=0 / chroma_qp_offset=-3 / threads=9 / lookahead_threads=1 / sliced_threads=0 / nr=0 / decimate=0 / interlaced=0 / bluray_compat=0 / constrained_intra=0 / bframes=8 / b_pyramid=2 / b_adapt=2 / b_bias=0 / direct=3 / weightb=1 / open_gop=0 / weightp=2 / keyint=250 / keyint_min=25 / scenecut=40 / intra_refresh=0 / rc=2pass / mbtree=0 / bitrate=1806 / ratetol=1.0 / qcomp=0.60 / qpmin=0 / qpmax=69 / qpstep=4 / cplxblur=20.0 / qblur=0.5 / ip_ratio=1.40 / pb_ratio=1.30 / aq=1:1.00
Default : Да
Forced : Нет

Аудио
Идентификатор : 2
Формат : AC-3
Формат/Информация : Audio Coding 3
Расширение режима : CM (complete main)
Параметр Endianness формата : Big
Идентификатор кодека : A_AC3
Продолжительность : 24 м.
Вид битрейта : Постоянный
Битрейт : 192 Кбит/сек
Каналы : 2 канала
Расположение каналов : Front: L R
Частота : 48,0 КГц
Битовая глубина : 16 бит
Метод сжатия : С потерями
Размер потока : 33,0 Мбайт (10%)
Default : Да
Forced : Нет



Торрент перезалит 30 апреля 2014 года, добавил 4 новые серии



   Похожие торренты   Торрент   Размер 
В этой теме нет новых непрочитанных сообщений. Даша-путешественница / Dora the Explorer [01-32 из ?] (2003...) DVDRip от New-Team | D | лицензия

116 | 18

10.75 ГБ

В этой теме нет новых непрочитанных сообщений. Даша-путешественница / Dora the Explorer [01-28 из ?] (2003...) DVDRip от New-Team | D | лицензия

281 | 44

9.41 ГБ

В этой теме нет новых непрочитанных сообщений. Даша-путешественница / Dora the Explorer [01-28 из ?] (2003...) DVDRip-AVC от New-Team | D | лицензия

73 | 19

9.39 ГБ

В этой теме нет новых непрочитанных сообщений. Даша-путешественница / Dora the Explorer [01-28] (2003) 7xDVD5 от New-Team | D | лицензия

1 | 14

28.39 ГБ

В этой теме нет новых непрочитанных сообщений. Даша-путешественница / Dora the Explorer [01-28] (2003...) 8xDVD5 от New-Team | D | лицензия

4 | 4

32.38 ГБ

В этой теме нет новых непрочитанных сообщений. Даша-путешественница / Dora the Explorer [01-47] (2003...) 11xDVD5 + DVD9 от New-Team | D | Лицензия

30 | 29

50.02 ГБ

В этой теме нет новых непрочитанных сообщений. Даша-путешественница / Dora the Explorer [S01-05*01-56 из ?] (2000-2010) DVDRip от New-Team | D | лицензия

119 | 48

18.97 ГБ




Вы не можете начинать темы
Вы не можете отвечать на сообщения
Вы не можете редактировать свои сообщения
Вы не можете удалять свои сообщения
Вы не можете добавлять вложения

Перейти:  
Для Мосгорсуда, Роскомнадзора и рекламодателей: mosgorsud-torrent[собачка]yandex.ru
 Вход
ppkBB3cker v.2 © 2008-2014 @ PPK
[ Time : 0.053s | 18 Queries | GZIP : Off ]

Торрент трекер RUTOR.IN, Не можете зайти на rutor.org? Какой новый адрес рутор? Какое зеркало рутор? Не работает rutor.org и зеркала? Тогда наш торрент специально для вас. Rutor.in неофициальное зеркало rutor. В случае если у Вас заблокирован rutor или вдруг Вы не можете на него зайти, то Вы без труда сможете скачать бесплатно и без рекламы последние новинки кино, игр, сериалов и прочего у нас, на Rutor.in. Не нужно использовать прокси, чтобы зайти на рутор, достаточно воспользоваться нашим ресурсом. Все новые фильмы, игры, сериалы, книги и музыка за 2013 и 2014 годы через торрент бесплатно. Скачивайте фильмы в хорошем качестве, игры для пк, xbox, playstation без регистрации. У нас вы найдете новые Зарубежные сериалы и Русские сериалы 2013, 2014, 2015 годов. Оставайтесь с нами, качайте любимые фильмы, игры, сериалы, книги и музыку.