img image001 image001 image001 image001 image001 image001 image001 image001 image001 image001 image001 image001 image001 image001 image001

Planets Sun Sun Sun
Статистика раздачи
Автор: Nickolas3434 | Размер: 2.14 ГБ | Добавлен: 06 май 2014
Раздают: 77    Качают: 18
Скачать торрент
Скачать торрент
Описание торрента

СообщениеДобавлено: 06 май 2014 

Информация о фильме
Название: Феи: Загадка пиратского острова
Оригинальное название: The Pirate Fairy
Год выпуска: 2014
Жанр: Мультфильм, фэнтези, детский, приключения
Выпущено: США, DisneyToon Studios, Prana Studios
Режиссер: Пегги Холмс
В ролях: Том Хиддлстон, Кристина Хендрикс, Мэй Уитман
О фильме: Феи — это маленькие существа природы, обладают особыми, волшебными способностями. Одной из таких есть, Динь — Динь, она родилась из первого смеха младенца с зонтиком одуванчика, они прилетели в Долину Фей, на волшебный остров Нетландия. Там юное создание перепробовала много чего, пока не узнала, что ее предназначение быть мастерицей. Динь — Динь, постоянно искала приключения, на свою голову. Ее подруги Иридесса — фея света, Розетта — садовая фея, фея всех животных и птиц — Фауна, также фея воды — Серебрянка, спасают горе подругу от нелепых ситуаций. Они помогают Динь — динь, разобраться во всем. И у фей новое приключение, все они оказались далеко от долины, на большом острове, раньше там никому из фей не доводилось быть.



Страна: США
Продолжительность: 01:18:05
Озвучивание: Дублированное [iTunes]

Файл
Кодек: H264
Качество: BDRip (AVC) (Исх: The.Pirate.Fairy.2014.1080p.BluRay.AVC.DTS-HD.MA.7.1-PublicHD)
Видео: MPEG-4 AVC, 3088 Кбит/с, 1024x576
Звук: Русский (AC3, 6 ch, 384 Кбит/с), английский (АС3, 6 ch, 448 Кбит/с)

General
Unique ID : 249392194610046051152899447004439045762 (0xBB9F30865279C78A804D6097F520E682)
Complete name : C:The.pirate.fairy.2014.Di.BDRip.AVC.ExKinoRay.mkv
Format : Matroska
Format version : Version 2
File size : 2.14 GiB
Duration : 1h 18mn
Overall bit rate : 3 924 Kbps
Movie name : the pirate fairy from ExKinoRay
Encoded date : UTC 2014-05-05 20:13:08
Writing application : mkvmerge v4.9.1 ('Ich will') built on Jul 11 2011 23:53:15
Writing library : libebml v1.2.1 + libmatroska v1.1.1

Video
ID : 1
Format : AVC
Format/Info : Advanced Video Codec
Format profile : High@L4.1
Format settings, CABAC : Yes
Format settings, ReFrames : 9 frames
Codec ID : V_MPEG4/ISO/AVC
Duration : 1h 18mn
Bit rate : 3 088 Kbps
Width : 1 024 pixels
Height : 576 pixels
Display aspect ratio : 16:9
Frame rate mode : Constant
Frame rate : 23.976 fps
Color space : YUV
Chroma subsampling : 4:2:0
Bit depth : 8 bits
Scan type : Progressive
Bits/(Pixel*Frame) : 0.218
Stream size : 1.64 GiB (77%)
Title : Enigma-Vladislav71
Writing library : x264 core 116 r2044 392e762
Encoding settings : cabac=1 / ref=9 / deblock=1:-2:-1 / analyse=0x3:0x113 / me=umh / subme=9 / psy=1 / psy_rd=1.00:0.20 / mixed_ref=1 / me_range=32 / chroma_me=1 / trellis=2 / 8x8dct=1 / cqm=0 / deadzone=21,11 / fast_pskip=0 / chroma_qp_offset=-3 / threads=12 / sliced_threads=0 / nr=0 / decimate=0 / interlaced=0 / bluray_compat=0 / constrained_intra=0 / bframes=8 / b_pyramid=2 / b_adapt=2 / b_bias=0 / direct=3 / weightb=1 / open_gop=0 / weightp=2 / keyint=240 / keyint_min=23 / scenecut=40 / intra_refresh=0 / rc=2pass / mbtree=0 / bitrate=3088 / ratetol=1.0 / qcomp=0.60 / qpmin=0 / qpmax=69 / qpstep=4 / cplxblur=20.0 / qblur=0.5 / ip_ratio=1.40 / pb_ratio=1.30 / aq=1:1.00
Default : Yes
Forced : No

Audio #1
ID : 2
Format : AC-3
Format/Info : Audio Coding 3
Mode extension : CM (complete main)
Format settings, Endianness : Big
Codec ID : A_AC3
Duration : 1h 18mn
Bit rate mode : Constant
Bit rate : 384 Kbps
Channel(s) : 6 channels
Channel positions : Front: L C R, Side: L R, LFE
Sampling rate : 48.0 KHz
Bit depth : 16 bits
Compression mode : Lossy
Stream size : 214 MiB (10%)
Title : iTunes
Language : Russian
Default : Yes
Forced : No

Audio #2
ID : 3
Format : AC-3
Format/Info : Audio Coding 3
Mode extension : CM (complete main)
Format settings, Endianness : Big
Codec ID : A_AC3
Duration : 1h 18mn
Bit rate mode : Constant
Bit rate : 448 Kbps
Channel(s) : 6 channels
Channel positions : Front: L C R, Side: L R, LFE
Sampling rate : 48.0 KHz
Bit depth : 16 bits
Compression mode : Lossy
Stream size : 250 MiB (11%)
Language : English
Default : No
Forced : No

Text #1
ID : 4
Format : UTF-8
Codec ID : S_TEXT/UTF8
Codec ID/Info : UTF-8 Plain Text
Title : Full
Language : English
Default : No
Forced : No

Text #2
ID : 5
Format : UTF-8
Codec ID : S_TEXT/UTF8
Codec ID/Info : UTF-8 Plain Text
Language : English
Default : No
Forced : No





Релиз от:

Авторы релиза:



   Похожие торренты   Торрент   Размер 
В этой теме нет новых непрочитанных сообщений. Феи: Загадка пиратского острова / The Pirate Fairy (2014) BDRemux от ExKinoRay | D | iTunes Russia

5 | 13

20.16 ГБ

В этой теме нет новых непрочитанных сообщений. Феи: Загадка пиратского острова / The Pirate Fairy (2014) BDRip 720p | iTunes

75 | 17

4.23 ГБ

В этой теме нет новых непрочитанных сообщений. Феи: Загадка пиратского острова / The Pirate Fairy (2014) BDRip 1080p | iTunes

166 | 31

5.4 ГБ

В этой теме нет новых непрочитанных сообщений. Феи: Загадка пиратского острова / The Pirate Fairy (2014) BDRip-AVC от ExKinoRay | Лицензия

439 | 18

2.18 ГБ

В этой теме нет новых непрочитанных сообщений. Феи: Загадка пиратского острова / The Pirate Fairy (2014) BDRip-AVC от ExKinoRay | Чистый звук

990 | 110

2.14 ГБ

В этой теме нет новых непрочитанных сообщений. Феи: Загадка пиратского острова / The Pirate Fairy (2014) HDRip | iTunes

798 | 83

1.37 ГБ

В этой теме нет новых непрочитанных сообщений. Феи: Загадка пиратского острова / The Pirate Fairy (2014) BDRemux от ExKinoRay | D | Лицензия

17 | 6

21 ГБ




Вы не можете начинать темы
Вы не можете отвечать на сообщения
Вы не можете редактировать свои сообщения
Вы не можете удалять свои сообщения
Вы не можете добавлять вложения

Перейти:  
Для Мосгорсуда, Роскомнадзора и рекламодателей: mosgorsud-torrent[собачка]yandex.ru
 Вход
ppkBB3cker v.2 © 2008-2014 @ PPK
[ Time : 0.037s | 15 Queries | GZIP : Off ]

Торрент трекер RUTOR.IN, Не можете зайти на rutor.org? Какой новый адрес рутор? Какое зеркало рутор? Не работает rutor.org и зеркала? Тогда наш торрент специально для вас. Rutor.in неофициальное зеркало rutor. В случае если у Вас заблокирован rutor или вдруг Вы не можете на него зайти, то Вы без труда сможете скачать бесплатно и без рекламы последние новинки кино, игр, сериалов и прочего у нас, на Rutor.in. Не нужно использовать прокси, чтобы зайти на рутор, достаточно воспользоваться нашим ресурсом. Все новые фильмы, игры, сериалы, книги и музыка за 2013 и 2014 годы через торрент бесплатно. Скачивайте фильмы в хорошем качестве, игры для пк, xbox, playstation без регистрации. У нас вы найдете новые Зарубежные сериалы и Русские сериалы 2013, 2014, 2015 годов. Оставайтесь с нами, качайте любимые фильмы, игры, сериалы, книги и музыку.