img image001 image001 image001 image001 image001 image001 image001 image001 image001 image001 image001 image001 image001 image001 image001

Planets Sun Sun Sun
Статистика раздачи
Автор: Nickolas3434 | Размер: 1.46 ГБ | Добавлен: 25 май 2014
Раздают: 19    Качают: 19
Скачать торрент
Скачать торрент
Описание торрента

СообщениеДобавлено: 25 май 2014 

Информация о фильме
Название: Супермен: Брэйниак атакует
Оригинальное название: Superman: Brainiac Attacks
Год выхода: 2006
Жанр: Мультфильм, Фантастика, Боевик
Режиссер: Курт Геда
В ролях: Тим Дейли, Пауэрс Бут, Дана Дилэйни, Лэнс Хенриксен, Джордж Дзундза, Дэвид Кауфман, Майк Фаррелл, Шелли Фабарес, Роджер Роуз, Синтия Сонге...

Описание: Озлобленный героическими успехами Cупермена и взлетающей популярностью, Лекс Лютор формирует опасный союз с мощным компьютерным злодеем Брэйниаком. Использование совершенного оружия на основе специальной породы, собранной из глубин космоса, злой гений перепрограммирует Брэйниака, что бы нанести поражение Супермену...





Страна: США
Продолжительность: 01:16:17
Перевод: Профессиональное, двухголосое (Супербит) + Профессиональное, двухголосое (Интерфильм)
Субтитры: Нет

Файл
Кодек: XviD
Качество: HDRip
Видео: 2334 kb/s, 23.976 fps, 720x400
Звук:
#1: AC3, 192 kb/s, 2 ch – Проф. двухголосое (Супербит)
#2: AC3, 192 kb/s, 2 ch – Проф. двухголосое (Интерфильм)

General
Complete name : D:torrentSup.Br.Atak.2006.HDRip•fox-torrents•.avi
Format : AVI
Format/Info : Audio Video Interleave
File size : 1.46 GiB
Duration : 1h 16mn
Overall bit rate : 2 732 Kbps
Writing application : VirtualDubMod 1.5.10.3 | www.virtualdub-fr.org || (build 2550/release)
Writing library : VirtualDubMod build 2550/release

Video
ID : 0
Format : MPEG-4 Visual
Format profile : Advanced Simple@L5
Format settings, BVOP : Yes
Format settings, QPel : No
Format settings, GMC : No warppoints
Format settings, Matrix : Custom
Codec ID : XVID
Codec ID/Hint : XviD
Duration : 1h 16mn
Bit rate : 2 334 Kbps
Width : 720 pixels
Height : 400 pixels
Display aspect ratio : 16:9
Frame rate : 23.976 fps
Color space : YUV
Chroma subsampling : 4:2:0
Bit depth : 8 bits
Scan type : Progressive
Compression mode : Lossy
Bits/(Pixel*Frame) : 0.338
Stream size : 1.24 GiB (85%)
Writing library : XviD 65

Audio #1
ID : 1
Format : AC-3
Format/Info : Audio Coding 3
Mode extension : CM (complete main)
Format settings, Endianness : Big
Codec ID : 2000
Duration : 1h 16mn
Bit rate mode : Constant
Bit rate : 192 Kbps
Channel count : 2 channels
Channel positions : Front: L R
Sampling rate : 48.0 KHz
Bit depth : 16 bits
Compression mode : Lossy
Stream size : 105 MiB (7%)
Alignment : Split accross interleaves
Interleave, duration : 42 ms (1.00 video frame)
Interleave, preload duration : 500 ms

Audio #2
ID : 2
Format : AC-3
Format/Info : Audio Coding 3
Mode extension : CM (complete main)
Format settings, Endianness : Big
Codec ID : 2000
Duration : 1h 16mn
Bit rate mode : Constant
Bit rate : 192 Kbps
Channel count : 2 channels
Channel positions : Front: L R
Sampling rate : 48.0 KHz
Bit depth : 16 bits
Compression mode : Lossy
Stream size : 105 MiB (7%)
Alignment : Split accross interleaves
Interleave, duration : 42 ms (1.00 video frame)
Interleave, preload duration : 500 ms




   Похожие торренты   Торрент   Размер 
В этой теме нет новых непрочитанных сообщений. Супермен: Брэйниак атакует / Superman: Brainiac Attacks (2006) DVDRip

1 | 4

699.99 МБ

В этой теме нет новых непрочитанных сообщений. Супермен: Брэйниак атакует / Superman: Brainiac Attacks (2006) BDRip-AVC от HQ-ViDEO

70 | 18

1.45 ГБ

В этой теме нет новых непрочитанных сообщений. Марс атакует! / Mars Attacks! (1996) HDRip-AVC от ExKinoRay | D

21 | 4

745.9 МБ

В этой теме нет новых непрочитанных сообщений. Супермен / Superman (1978) HDRip от HQ-ViDEO

26 | 28

2.18 ГБ

В этой теме нет новых непрочитанных сообщений. Супермен: Свободный / Superman: Unbound (2013) HDRip

1 | 2

735.35 МБ

В этой теме нет новых непрочитанных сообщений. Сверхновый Супермен / All-Star Superman (2011) HDRip

10 | 8

699.94 МБ

В этой теме нет новых непрочитанных сообщений. Супермен: Свободный / Superman: Unbound (2013) HDRip | L

0 | 4

692.11 МБ




Вы не можете начинать темы
Вы не можете отвечать на сообщения
Вы не можете редактировать свои сообщения
Вы не можете удалять свои сообщения
Вы не можете добавлять вложения

Перейти:  
Для Мосгорсуда, Роскомнадзора и рекламодателей: mosgorsud-torrent[собачка]yandex.ru
 Вход
ppkBB3cker v.2 © 2008-2014 @ PPK
[ Time : 0.046s | 15 Queries | GZIP : Off ]

cron