img image001 image001 image001 image001 image001 image001 image001 image001 image001 image001 image001 image001 image001 image001 image001

Planets Sun Sun Sun
Статистика раздачи
Автор: Nickolas3434 | Размер: 2.18 ГБ | Добавлен: 25 май 2014
Раздают: 439    Качают: 18
Скачать торрент
Скачать торрент
Описание торрента

СообщениеДобавлено: 25 май 2014 

Информация о фильме
Название: Феи: Загадка пиратского острова
Оригинальное название: The Pirate Fairy
Год выпуска: 2014
Жанр: Мультфильм, фэнтези, детский, приключения
Выпущено: США, DisneyToon Studios, Prana Studios
Режиссер: Пегги Холмс
В ролях: Том Хиддлстон, Кристина Хендрикс, Мэй Уитман
О фильме: Феи — это маленькие существа природы, обладают особыми, волшебными способностями. Одной из таких есть, Динь — Динь, она родилась из первого смеха младенца с зонтиком одуванчика, они прилетели в Долину Фей, на волшебный остров Нетландия. Там юное создание перепробовала много чего, пока не узнала, что ее предназначение быть мастерицей. Динь — Динь, постоянно искала приключения, на свою голову. Ее подруги Иридесса — фея света, Розетта — садовая фея, фея всех животных и птиц — Фауна, также фея воды — Серебрянка, спасают горе подругу от нелепых ситуаций. Они помогают Динь — динь, разобраться во всем. И у фей новое приключение, все они оказались далеко от долины, на большом острове, раньше там никому из фей не доводилось быть.



Страна: США
Продолжительность: 01:18:05
Озвучивание: Дублированное [Лицензия]

Файл
Кодек: H264
Качество: BDRip (AVC) (Исх: The.Pirate.Fairy.2014.1080p.BluRay.AVC.DTS-HD.MA.7.1-PublicHD)
Видео: MPEG-4 AVC, 3088 Кбит/с, 1024x576
Звук: Русский, английский (АС3, 6 ch, 448 Кбит/с)

Общее
Уникальный идентификатор : 220100888981766917363321795675349891339 (0xA595E3A85A8BE5FEA267E49DCB68B90B)
Полное имя : C:DownloadsThe.pirate.fairy.2014.Di.BDRip.AVC.ExKinoRay.mkv
Формат : Matroska
Версия формата : Version 2
Размер файла : 2,18 Гбайт
Продолжительность : 1 ч. 18 м.
Общий поток : 3988 Кбит/сек
Дата кодирования : UTC 2014-05-10 20:33:29
Программа кодирования : mkvmerge v5.6.0 ('Kenya Kane') built on May 27 2012 16:44:04
Библиотека кодирования : libebml v1.2.3 + libmatroska v1.3.0

Видео
Идентификатор : 1
Формат : AVC
Формат/Информация : Advanced Video Codec
Профиль формата : High@L4.1
Параметр CABAC формата : Да
Параметр ReFrames формата : 9 кадров
Идентификатор кодека : V_MPEG4/ISO/AVC
Продолжительность : 1 ч. 18 м.
Битрейт : 3088 Кбит/сек
Ширина : 1024 пикселя
Высота : 576 пикселей
Соотношение сторон : 16:9
Режим частоты кадров : Постоянный
Частота кадров : 23,976 кадра/сек
Цветовое пространство : YUV
Субдискретизация насыщенности : 4:2:0
Битовая глубина : 8 бит
Тип развёртки : Прогрессивная
Бит/(Пиксели*Кадры) : 0.218
Размер потока : 1,64 Гбайт (76%)
Заголовок : Enigma-Vladislav71
Библиотека кодирования : x264 core 116 r2044 392e762
Настройки программы : cabac=1 / ref=9 / deblock=1:-2:-1 / analyse=0x3:0x113 / me=umh / subme=9 / psy=1 / psy_rd=1.00:0.20 / mixed_ref=1 / me_range=32 / chroma_me=1 / trellis=2 / 8x8dct=1 / cqm=0 / deadzone=21,11 / fast_pskip=0 / chroma_qp_offset=-3 / threads=12 / sliced_threads=0 / nr=0 / decimate=0 / interlaced=0 / bluray_compat=0 / constrained_intra=0 / bframes=8 / b_pyramid=2 / b_adapt=2 / b_bias=0 / direct=3 / weightb=1 / open_gop=0 / weightp=2 / keyint=240 / keyint_min=23 / scenecut=40 / intra_refresh=0 / rc=2pass / mbtree=0 / bitrate=3088 / ratetol=1.0 / qcomp=0.60 / qpmin=0 / qpmax=69 / qpstep=4 / cplxblur=20.0 / qblur=0.5 / ip_ratio=1.40 / pb_ratio=1.30 / aq=1:1.00
Default : Да
Forced : Нет

Аудио #1
Идентификатор : 2
Формат : AC-3
Формат/Информация : Audio Coding 3
Расширение режима : CM (complete main)
Параметр Endianness формата : Big
Идентификатор кодека : A_AC3
Продолжительность : 1 ч. 18 м.
Вид битрейта : Постоянный
Битрейт : 448 Кбит/сек
Каналы : 6 каналов
Расположение каналов : Front: L C R, Side: L R, LFE
Частота : 48,0 КГц
Битовая глубина : 16 бит
Метод сжатия : С потерями
Размер потока : 250 Мбайт (11%)
Заголовок : Дублированный (Лицензия)
Язык : Russian
Default : Да
Forced : Нет

Аудио #2
Идентификатор : 3
Формат : AC-3
Формат/Информация : Audio Coding 3
Расширение режима : CM (complete main)
Параметр Endianness формата : Big
Идентификатор кодека : A_AC3
Продолжительность : 1 ч. 18 м.
Вид битрейта : Постоянный
Битрейт : 448 Кбит/сек
Каналы : 6 каналов
Расположение каналов : Front: L C R, Side: L R, LFE
Частота : 48,0 КГц
Битовая глубина : 16 бит
Метод сжатия : С потерями
Размер потока : 250 Мбайт (11%)
Язык : English
Default : Нет
Forced : Нет

Текст #1
Идентификатор : 4
Формат : UTF-8
Идентификатор кодека : S_TEXT/UTF8
Идентификатор кодека/Информация : UTF-8 Plain Text
Заголовок : Full
Язык : English
Default : Нет
Forced : Нет

Текст #2
Идентификатор : 5
Формат : UTF-8
Идентификатор кодека : S_TEXT/UTF8
Идентификатор кодека/Информация : UTF-8 Plain Text
Язык : English
Default : Нет
Forced : Нет





Релиз от:

Авторы релиза:



   Похожие торренты   Торрент   Размер 
В этой теме нет новых непрочитанных сообщений. Феи: Загадка пиратского острова / The Pirate Fairy (2014) BDRemux от ExKinoRay | D | Лицензия

17 | 6

21 ГБ

В этой теме нет новых непрочитанных сообщений. Феи: Загадка пиратского острова / The Pirate Fairy (2014) BDRip-AVC от ExKinoRay | iTunes

77 | 18

2.14 ГБ

В этой теме нет новых непрочитанных сообщений. Феи: Загадка пиратского острова / The Pirate Fairy (2014) BDRip-AVC от ExKinoRay | Чистый звук

990 | 110

2.14 ГБ

В этой теме нет новых непрочитанных сообщений. Феи: Загадка пиратского острова / The Pirate Fairy (2014) BDRip от Deadmauvlad | Лицензия

684 | 24

747.25 МБ

В этой теме нет новых непрочитанных сообщений. Феи: Загадка пиратского острова / The Pirate Fairy (2014) BDRip от Deadmauvlad | Лицензия

1950 | 106

1.42 ГБ

В этой теме нет новых непрочитанных сообщений. Феи: Загадка пиратского острова / The Pirate Fairy (2014) BDRip от HQCLUB | Лицензия

747 | 42

1.45 ГБ

В этой теме нет новых непрочитанных сообщений. Феи: Загадка пиратского острова / The Pirate Fairy (2014) BDRip 720p от HELLYWOOD | Лицензия

238 | 19

3.38 ГБ




Вы не можете начинать темы
Вы не можете отвечать на сообщения
Вы не можете редактировать свои сообщения
Вы не можете удалять свои сообщения
Вы не можете добавлять вложения

Перейти:  
Для Мосгорсуда, Роскомнадзора и рекламодателей: mosgorsud-torrent[собачка]yandex.ru
 Вход
ppkBB3cker v.2 © 2008-2014 @ PPK
[ Time : 0.045s | 14 Queries | GZIP : Off ]

Торрент трекер RUTOR.IN, Не можете зайти на rutor.org? Какой новый адрес рутор? Какое зеркало рутор? Не работает rutor.org и зеркала? Тогда наш торрент специально для вас. Rutor.in неофициальное зеркало rutor. В случае если у Вас заблокирован rutor или вдруг Вы не можете на него зайти, то Вы без труда сможете скачать бесплатно и без рекламы последние новинки кино, игр, сериалов и прочего у нас, на Rutor.in. Не нужно использовать прокси, чтобы зайти на рутор, достаточно воспользоваться нашим ресурсом. Все новые фильмы, игры, сериалы, книги и музыка за 2013 и 2014 годы через торрент бесплатно. Скачивайте фильмы в хорошем качестве, игры для пк, xbox, playstation без регистрации. У нас вы найдете новые Зарубежные сериалы и Русские сериалы 2013, 2014, 2015 годов. Оставайтесь с нами, качайте любимые фильмы, игры, сериалы, книги и музыку.