img image001 image001 image001 image001 image001 image001 image001 image001 image001 image001 image001 image001 image001 image001 image001

Planets Sun Sun Sun
Статистика раздачи
Автор: Nickolas3434 | Размер: 747.25 МБ | Добавлен: 25 май 2014
Раздают: 684    Качают: 24
Скачать торрент
Скачать торрент
Описание торрента

СообщениеДобавлено: 25 май 2014 

Феи: Загадка пиратского острова / The Pirate Fairy

Страна: США
Год выпуска: 2014
Жанр: мультфильм, фэнтези, детский, приключения
Продолжительность: 01:18:05
Перевод: Профессиональный (дублированный) Лицензия

Режиссер: Пегги Холмс / Peggy Holmes

Актеры: Кристина Хендрикс, Мэй Уитман, Том Хиддлстон, Памела Адлон, Анджела Бартис, Меган Хилти, Люси Лью, Рэйвен, Джим Каммингс, Кевин Майкл Ричардсон

Описание фильма: История о Зарине, смышленой и амбициозной фее, собирающей пыльцу растений. Все начинается с того, что она похищает волшебную пыльцу фей…

Файл
Качество видео: BDRip исх.Tinker Bell and the Pirate Fairy (2014) Blu-ray 1080p AVC DD5.1.HDClub
Формат: AVI
Видео: 624x336 (1.86:1), 23.976 fps, XviD build 73 ~1200 kbps avg, 0.24 bit/pixel
Аудио: 48 kHz, MPEG Layer 3, 2 ch, ~128.00 kbps avg


Код:
Общее
Полное имя                               : D:Рипы выкладка [Deadmauvlad]Рипы готовыеThe Pirate Fairy.2014.D.BDRip.Deadmauvlad.avi
Формат                                   : AVI
Формат/Информация                        : Audio Video Interleave
Размер файла                             : 747 Мбайт
Продолжительность                        : 1 ч. 18 м.
Общий поток                              : 1338 Кбит/сек
Название фильма                          : The Pirate Fairy.2014.D.BDRip.Deadmauvlad
Режиссёр                                 : Deadmauvlad
Жанр                                     : Genre_00+
Программа кодирования                    : VirtualDubMod 1.5.10.3 | www.virtualdub-fr.org || (build 2550/release)
Формат оригинала/Имя                     : Мультфильм
Правообладатель                          : Goldenshara
Примечание                               : Лицензия

Видео
Идентификатор                            : 0
Формат                                   : MPEG-4 Visual
Профиль формата                          : Advanced Simple@L5
Параметр BVOP формата                    : 1
Параметр QPel формата                    : Нет
Параметр GMC формата                     : Без точки перехода
Параметр матрицы формата                 : Выборочная
Идентификатор кодека                     : XVID
Идентификатор кодека/Подсказка           : XviD
Продолжительность                        : 1 ч. 18 м.
Битрейт                                  : 1201 Кбит/сек
Ширина                                   : 624 пикселя
Высота                                   : 336 пикселей
Соотношение сторон                       : 1,85:1
Частота кадров                           : 23,976 кадра/сек
Цветовое пространство                    : YUV
Субдискретизация насыщенности            : 4:2:0
Битовая глубина                          : 8 бит
Тип развёртки                            : Прогрессивная
Метод сжатия                             : С потерями
Бит/(Пиксели*Кадры)                      : 0.239
Размер потока                            : 671 Мбайт (90%)
Библиотека кодирования                   : XviD 73

Аудио
Идентификатор                            : 1
Формат                                   : MPEG Audio
Версия формата                           : Version 1
Профиль формата                          : Layer 3
Идентификатор кодека                     : 55
Идентификатор кодека/Подсказка           : MP3
Продолжительность                        : 1 ч. 18 м.
Вид битрейта                             : Постоянный
Битрейт                                  : 128 Кбит/сек
Каналы                                   : 2 канала
Частота                                  : 48,0 КГц
Метод сжатия                             : С потерями
Размер потока                            : 71,5 Мбайт (10%)
Выравнивание                             : Соединение по промежуткам
Продолжительность промежутка             : 42  мс. (1,00 видеокадр)
Время предзагрузки промежутка            : 504  мс.
Библиотека кодирования                   : LAME3.99r
Настройки программы                      : -m s -V 4 -q 2 -lowpass 17 -b 128



   Похожие торренты   Торрент   Размер 
В этой теме нет новых непрочитанных сообщений. Феи: Загадка пиратского острова / The Pirate Fairy (2014) BDRip от Deadmauvlad | Лицензия

1950 | 106

1.42 ГБ

В этой теме нет новых непрочитанных сообщений. Феи: Загадка пиратского острова / The Pirate Fairy (2014) HDRip от Deadmauvlad | Чистый звук

1775 | 280

747.31 МБ

В этой теме нет новых непрочитанных сообщений. Феи: Загадка пиратского острова / The Pirate Fairy (2014) BDRip от HQCLUB | Лицензия

747 | 42

1.45 ГБ

В этой теме нет новых непрочитанных сообщений. Феи: Загадка пиратского острова / The Pirate Fairy (2014) BDRip-AVC от ExKinoRay | Лицензия

439 | 18

2.18 ГБ

В этой теме нет новых непрочитанных сообщений. Феи: Загадка пиратского острова / The Pirate Fairy (2014) BDRip 720p от HELLYWOOD | Лицензия

238 | 19

3.38 ГБ

В этой теме нет новых непрочитанных сообщений. Феи: Загадка пиратского острова / The Pirate Fairy (2014) BDRip 720p от Leonardo and Scarabey | Лицензия

414 | 17

2.98 ГБ

В этой теме нет новых непрочитанных сообщений. Феи: Загадка пиратского острова / The Pirate Fairy (2014) DVD9 R5 от New-Team | D | лицензия

86 | 26

5.69 ГБ




Вы не можете начинать темы
Вы не можете отвечать на сообщения
Вы не можете редактировать свои сообщения
Вы не можете удалять свои сообщения
Вы не можете добавлять вложения

Перейти:  
Для Мосгорсуда, Роскомнадзора и рекламодателей: mosgorsud-torrent[собачка]yandex.ru
 Вход
ppkBB3cker v.2 © 2008-2014 @ PPK
[ Time : 0.045s | 16 Queries | GZIP : Off ]

Торрент трекер RUTOR.IN, Не можете зайти на rutor.org? Какой новый адрес рутор? Какое зеркало рутор? Не работает rutor.org и зеркала? Тогда наш торрент специально для вас. Rutor.in неофициальное зеркало rutor. В случае если у Вас заблокирован rutor или вдруг Вы не можете на него зайти, то Вы без труда сможете скачать бесплатно и без рекламы последние новинки кино, игр, сериалов и прочего у нас, на Rutor.in. Не нужно использовать прокси, чтобы зайти на рутор, достаточно воспользоваться нашим ресурсом. Все новые фильмы, игры, сериалы, книги и музыка за 2013 и 2014 годы через торрент бесплатно. Скачивайте фильмы в хорошем качестве, игры для пк, xbox, playstation без регистрации. У нас вы найдете новые Зарубежные сериалы и Русские сериалы 2013, 2014, 2015 годов. Оставайтесь с нами, качайте любимые фильмы, игры, сериалы, книги и музыку.
cron