img image001 image001 image001 image001 image001 image001 image001 image001 image001 image001 image001 image001 image001 image001 image001

Planets Sun Sun Sun
Статистика раздачи
Автор: Nickolas3434 | Размер: 7.42 ГБ | Добавлен: 25 май 2014
Раздают: 80    Качают: 23
Скачать торрент
Скачать торрент
Описание торрента

СообщениеДобавлено: 25 май 2014 

Год выпуска: 2012 - 2014
Страна: Россия
Жанр: мультсериал
Продолжительность: длительность серий смотри под спойлером "Наименование серий"

Перевод: не требуется
Субтитры: нет

Режиссеры: Олег Мусин, Анна Борисова, Катерина Савчук, Алексей Минченок, Наталья Мирзоян, Александра Аверьянова, Константин Бирюков, Илья Максимов

В ролях (озвучка): Владимир Постников, Вадим Бочанов, Ксения Бржезовская, Светлана Письмиченко, Сергей Мардарь, Михаил Черняк, Сауле Искакова

Описание: Жизнерадостные круглые друзья вернулись на наши экраны и всех удивили. Ведь в новом сезоне наши любимые Смешарики округлились окончательно — теперь они трехмерные!



Исходник: 8 x DVD5 R5
Качество: DVDRip
Формат: AVI

Видео: 720x400 (16:9), 25.000 fps, XViD ~ 2000 kbps avg, 0.278 bit/pixel
Аудио: 48 kHz, АС3 2 ch, 192 kbps, русский

Релиз от:
Диск 01: Шуша (2012)
01. Шуша - 10:26
02. Иллюзионист - 10:26
03. Кто подставил кролика Кроша? - 10:06
04. Только никому не говори - 10:23
05. Последняя ошибка Пина - 10:22
06. Бонус - Мультклипы - 14:34

Диск 02: Выпуск 1 (2012)
01. Власть моды - 06:30
02. Ничейный выигрыш - 06:30
03. Непрощенный - 06:30
04. Пощады не будет! - 06:30
05. Статистика - 06:30
06. Наказуха - 06:30
07. Я завтрашний, я вчерашний - 06:30
08. Искусство кройки и житья - 06:30
06. Бонус - Мультклипы - 09:34

Диск 03: Выпуск 2 – Степанида (2013)
01. Степанида - 10:20
02. Кибернюша - 10:19
03. Машина времени - 10:19
04. Одно из двух - 10:19
05. Пандянка - 11:00
06. Бонус - Мультклипы - 08:04

Диск 04: Выпуск 3 – Дикарь (2013)
01. Дикарь - 10:23
02. Упаковщики - 10:23
03. Вместо меня - 10:22
04. Массы и расстояния - 10:22
05. Кто смеется последним - 10:22
06. Бонус - Мультклипы - 08:06

Диск 05: Выпуск 4 – Нюша и медведь (2013)
01. Нюша и медведь - 10:19
02. Большой переворот - 10:20
03. Шлагбаум - 10:24
04. Спартакиада - 10:23
05. Сложные механизмы почты - 10:19
06. Бонус - Мультклипы - 06:54

Диск 06: Выпуск 5 – Похитители времени (2013)
01. Похитители времени - 10:31
02. Печенья судьбы - 10:20
03. Мой странный юмор - 10:19
04. Перестройка - 10:20
05. Восстание машин - 10:20
06. Бонус - Мультклипы - 06:54

Диск 07: Новогодний эфир (2013)
01. Новогодний эфир - 10:20
02. Любибимые игрушки - 10:20
03. Очень большие неприятности - 10:20
04. Наследство - 10:20
05. Без вопросов - 10:20
06. Список - 06:30
07. Абсолютный слух - 06:30

Диск 08: Эликсир взрослости (2014)
01. Эликсир взрослости - 10:20
02. Мармадюк - 10:20
03. Билет в один конец - 10:20
04. Стакан воды - 10:20
05. Детский сад - 10:20

Общее
Полное имя : Smeshariki.Novie.priklyucheniya.2013.O.DVDRip_[Youtracker]_by_avproh�1.avi
Формат : AVI
Формат/Информация : Audio Video Interleave
Размер файла : 102 Мбайт
Продолжительность : 6 м. 30 с.
Общий поток : 2202 Кбит/сек
Программа кодирования : VirtualDubModRus 1.5.10.2 (build 2542/release)
Библиотека кодирования : VirtualDubMod build 2542/release

Видео
Идентификатор : 0
Формат : MPEG-4 Visual
Профиль формата : Advanced Simple@L5
Параметр BVOP формата : 1
Параметр QPel формата : Нет
Параметр GMC формата : Без точки перехода
Параметр матрицы формата : Выборочная
Идентификатор кодека : XVID
Идентификатор кодека/Подсказка : XviD
Продолжительность : 6 м. 30 с.
Битрейт : 2000 Кбит/сек
Ширина : 720 пикселей
Высота : 400 пикселей
Соотношение сторон : 16:9
Частота кадров : 25,000 кадров/сек
Цветовое пространство : YUV
Субдискретизация насыщенности : 4:2:0
Битовая глубина : 8 бит
Тип развёртки : Прогрессивная
Метод сжатия : С потерями
Бит/(Пиксели*Кадры) : 0.278
Размер потока : 93,0 Мбайт (91%)
Библиотека кодирования : XviD 65

Аудио
Идентификатор : 1
Формат : AC-3
Формат/Информация : Audio Coding 3
Расширение режима : CM (complete main)
Параметр Endianness формата : Big
Идентификатор кодека : 2000
Продолжительность : 6 м. 29 с.
Вид битрейта : Постоянный
Битрейт : 192 Кбит/сек
Каналы : 2 канала
Расположение каналов : Front: L R
Частота : 48,0 КГц
Битовая глубина : 16 бит
Метод сжатия : С потерями
Размер потока : 8,93 Мбайт (9%)
Выравнивание : Разделение по промежуткам
Продолжительность промежутка : 40 мс. (1,00 видеокадр)
Время предзагрузки промежутка : 500 мс.




Торрент перезалит 13 мая 2014 года, добавлены 5 серий с нового диска



   Похожие торренты   Торрент   Размер 
В этой теме нет новых непрочитанных сообщений. Смешарики. Новые приключения [01-51 из ?] + 6 бонусов (2012-2014) DVDRip-AVC от New-Team | лицензия

1120 | 205

8.36 ГБ

В этой теме нет новых непрочитанных сообщений. Смешарики. Новые приключения [01-51 из ?] + 6 бонусов (2012-2014) DVDRip от New-Team | Лицензия

487 | 51

8.38 ГБ

В этой теме нет новых непрочитанных сообщений. Смешарики. Новые приключения [01-45 из ?] + 6 бонусов (2012-2014) DVDRip-AVC от New-Team | лицензия

149 | 98

7.4 ГБ

В этой теме нет новых непрочитанных сообщений. Смешарики. Новые приключения [01-40 из ?] + 6 бонусов (2013) DVDRip-AVC от New-Team | лицензия

68 | 15

6.61 ГБ

В этой теме нет новых непрочитанных сообщений. Смешарики. Новые приключения [01-40 из ?] + 6 бонусов (2013) DVDRip от New-Team | лицензия

86 | 22

6.63 ГБ

В этой теме нет новых непрочитанных сообщений. Смешарики. Новые приключения. Выпуск 1-5 + Шуша; Новогодний эфир (2012-2013) 7xDVD5 от New-Team | Лицензия

12 | 9

19.64 ГБ

В этой теме нет новых непрочитанных сообщений. Смешарики. Новые приключения. Выпуск 1-6 + Шуша; Новогодний эфир (2012-2013) 8xDVD5 от New-Team | Лицензия

24 | 31

22.2 ГБ




Вы не можете начинать темы
Вы не можете отвечать на сообщения
Вы не можете редактировать свои сообщения
Вы не можете удалять свои сообщения
Вы не можете добавлять вложения

Перейти:  
Для Мосгорсуда, Роскомнадзора и рекламодателей: mosgorsud-torrent[собачка]yandex.ru
 Вход
ppkBB3cker v.2 © 2008-2014 @ PPK
[ Time : 0.820s | 17 Queries | GZIP : Off ]

Торрент трекер RUTOR.IN, Не можете зайти на rutor.org? Какой новый адрес рутор? Какое зеркало рутор? Не работает rutor.org и зеркала? Тогда наш торрент специально для вас. Rutor.in неофициальное зеркало rutor. В случае если у Вас заблокирован rutor или вдруг Вы не можете на него зайти, то Вы без труда сможете скачать бесплатно и без рекламы последние новинки кино, игр, сериалов и прочего у нас, на Rutor.in. Не нужно использовать прокси, чтобы зайти на рутор, достаточно воспользоваться нашим ресурсом. Все новые фильмы, игры, сериалы, книги и музыка за 2013 и 2014 годы через торрент бесплатно. Скачивайте фильмы в хорошем качестве, игры для пк, xbox, playstation без регистрации. У нас вы найдете новые Зарубежные сериалы и Русские сериалы 2013, 2014, 2015 годов. Оставайтесь с нами, качайте любимые фильмы, игры, сериалы, книги и музыку.
cron