img image001 image001 image001 image001 image001 image001 image001 image001 image001 image001 image001 image001 image001 image001 image001

Planets Sun Sun Sun
Статистика раздачи
Автор: Nickolas3434 | Размер: 3.64 ГБ | Добавлен: 25 май 2014
Раздают: 1079    Качают: 61
Скачать торрент
Скачать торрент
Описание торрента

СообщениеДобавлено: 25 май 2014 



#77

Информация о фильме
Название: Кот Гром и заколдованный дом
Оригинальное название: The House of Magic
Год выхода: 2013
Жанр: мультфильм, семейный
Режиссер: Джереми Дегрусон, Бен Стассен
Роли дублировали: Александр Якин, Людмила Артемьева, Михаил Башкатов, Роман Юнусов, Федор Добронравов

О фильме: Любопытный рыжий кот попадает в дом старого фокусника и узнает секрет его трюков. Так начинается его знакомство с учеными зверями и живыми игрушками, а также невероятные приключения полные юмора и опасностей.



Выпущено: США, Бельгия / nWave Pictures, Studio Canal International, Anton Capital Entertainment (ACE)
Продолжительность: 01:25:28
Озвучивание: Дублированное [Чистый звук]

Файл
Формат: MKV
Качество: BDRip 720p
Видео: 4270 kb/s, 1280x720
Аудио: Russian: AC3, 192 kb/s (2 ch) / English: DTS, 1510 kb/s (6 ch)
Субтитры: Italian

Семпл





Format : Matroska
Format version : Version 4 / Version 2
File size : 3.64 GiB
Duration : 1h 25mn
Overall bit rate : 6 092 Kbps
Movie name : M@HD
Encoded date : UTC 2014-05-16 05:30:02
Writing application : mkvmerge v6.5.0 ('Isn't she lovely') built on Oct 20 2013 12:50:05
Writing library : libebml v1.3.0 + libmatroska v1.4.1

Video
ID : 1
Format : AVC
Format/Info : Advanced Video Codec
Format profile : High@L4.1
Format settings, CABAC : Yes
Format settings, ReFrames : 4 frames
Codec ID : V_MPEG4/ISO/AVC
Duration : 1h 25mn
Bit rate : 4 269 Kbps
Width : 1 280 pixels
Height : 720 pixels
Display aspect ratio : 16:9
Frame rate : 24.000 fps
Color space : YUV
Chroma subsampling : 4:2:0
Bit depth : 8 bits
Scan type : Progressive
Bits/(Pixel*Frame) : 0.193
Stream size : 2.55 GiB (70%)
Writing library : x264 core 142 r2431+42 c69a006 tMod [8-bit@all X86_64]
Encoding settings : cabac=1 / ref=2 / deblock=1:0:0 / analyse=0x3:0x133 / me=hex / subme=2 / psy=1 / fade_compensate=0.00 / psy_rd=1.00:0.00 / mixed_ref=1 / me_range=16 / chroma_me=1 / trellis=2 / 8x8dct=1 / cqm=0 / deadzone=21,11 / fast_pskip=0 / chroma_qp_offset=0 / threads=12 / lookahead_threads=5 / sliced_threads=0 / nr=0 / decimate=1 / interlaced=0 / bluray_compat=0 / constrained_intra=0 / fgo=0 / bframes=2 / b_pyramid=2 / b_adapt=2 / b_bias=0 / direct=1 / weightb=1 / open_gop=0 / weightp=2 / keyint=240 / keyint_min=24 / scenecut=40 / intra_refresh=0 / rc=crf / mbtree=0 / crf=16.9000 / qcomp=0.60 / qpmin=0:0:0 / qpmax=69:69:69 / qpstep=4 / ip_ratio=1.40 / pb_ratio=1.30 / aq=1:1.00 / aq-sensitivity=10.00 / aq-factor=1.00:1.00:1.00 / aq2=0 / aq3=0
Default : Yes
Forced : No

Audio #1
ID : 2
Format : AC-3
Format/Info : Audio Coding 3
Mode extension : CM (complete main)
Format settings, Endianness : Big
Codec ID : A_AC3
Duration : 1h 25mn
Bit rate mode : Constant
Bit rate : 192 Kbps
Channel(s) : 2 channels
Channel positions : Front: L R
Sampling rate : 48.0 KHz
Bit depth : 16 bits
Compression mode : Lossy
Stream size : 117 MiB (3%)
Default : Yes
Forced : No

Audio #2
ID : 3
Format : DTS
Format/Info : Digital Theater Systems
Codec ID : A_DTS
Duration : 1h 25mn
Bit rate mode : Constant
Bit rate : 1 510 Kbps
Channel(s) : 6 channels
Channel positions : Front: L C R, Side: L R, LFE
Sampling rate : 48.0 KHz
Bit depth : 24 bits
Compression mode : Lossy
Delay relative to video : 1ms
Stream size : 923 MiB (25%)
Language : English
Default : No
Forced : No

Text #1
ID : 4
Format : UTF-8
Codec ID : S_TEXT/UTF8
Codec ID/Info : UTF-8 Plain Text
Title : Italiano Forced
Language : Italian
Default : Yes
Forced : No

Text #2
ID : 5
Format : UTF-8
Codec ID : S_TEXT/UTF8
Codec ID/Info : UTF-8 Plain Text
Title : Italiano
Language : Italian
Default : No
Forced : No



   Похожие торренты   Торрент   Размер 
В этой теме нет новых непрочитанных сообщений. Кот Гром и заколдованный дом / The House of Magic (2013) BDRip 1080p | Чистый звук

1169 | 71

5.15 ГБ

В этой теме нет новых непрочитанных сообщений. Кот Гром и заколдованный дом / The House of Magic (2013) BDRip 1080p | Чистый звук | 3D-Video | HSBS

376 | 23

5.35 ГБ

В этой теме нет новых непрочитанных сообщений. Кот Гром и заколдованный дом / The House of Magic (2013) HDRip | Чистый звук

591 | 24

700.16 МБ

В этой теме нет новых непрочитанных сообщений. Кот Гром и заколдованный дом / The House of Magic (2013) HDRip | Чистый звук

3804 | 153

1.37 ГБ

В этой теме нет новых непрочитанных сообщений. Кот Гром и заколдованный дом / The House of Magic (2013) HDRip от Scarabey | D | Чистый звук

697 | 53

1.45 ГБ

В этой теме нет новых непрочитанных сообщений. Кот Гром и заколдованный дом / The House of Magic (2013) HDRip от Scarabey | D | Чистый звук

165 | 26

744.1 МБ

В этой теме нет новых непрочитанных сообщений. Кот Гром и заколдованный дом / The House of Magic (2013) HDRip-AVC от ExKinoRay | Чистый звук

1599 | 35

1.51 ГБ




Вы не можете начинать темы
Вы не можете отвечать на сообщения
Вы не можете редактировать свои сообщения
Вы не можете удалять свои сообщения
Вы не можете добавлять вложения

Перейти:  
Для Мосгорсуда, Роскомнадзора и рекламодателей: mosgorsud-torrent[собачка]yandex.ru
 Вход
ppkBB3cker v.2 © 2008-2014 @ PPK
[ Time : 0.026s | 15 Queries | GZIP : Off ]

Торрент трекер RUTOR.IN, Не можете зайти на rutor.org? Какой новый адрес рутор? Какое зеркало рутор? Не работает rutor.org и зеркала? Тогда наш торрент специально для вас. Rutor.in неофициальное зеркало rutor. В случае если у Вас заблокирован rutor или вдруг Вы не можете на него зайти, то Вы без труда сможете скачать бесплатно и без рекламы последние новинки кино, игр, сериалов и прочего у нас, на Rutor.in. Не нужно использовать прокси, чтобы зайти на рутор, достаточно воспользоваться нашим ресурсом. Все новые фильмы, игры, сериалы, книги и музыка за 2013 и 2014 годы через торрент бесплатно. Скачивайте фильмы в хорошем качестве, игры для пк, xbox, playstation без регистрации. У нас вы найдете новые Зарубежные сериалы и Русские сериалы 2013, 2014, 2015 годов. Оставайтесь с нами, качайте любимые фильмы, игры, сериалы, книги и музыку.