img image001 image001 image001 image001 image001 image001 image001 image001 image001 image001 image001 image001 image001 image001 image001

Planets Sun Sun Sun
Статистика раздачи
Автор: Nickolas3434 | Размер: 5.03 ГБ | Добавлен: 25 май 2014
Раздают: 385    Качают: 92
Скачать торрент
Скачать торрент
Описание торрента

СообщениеДобавлено: 25 май 2014 




Кот Гром и заколдованный дом
Le Manoir Magique
The House of Magic



#77
Год выпуска: 2013
Страна: США, Бельгия (StudioCanal, nWave Pictures)
Жанр: Мультфильм, Семейный
Продолжительность: 1:25:08

Перевод: Профессиональный (дублированный)

Режиссер: Джереми Дегрусон, Бен Стассен / Jeremy Degruson, Ben Stassen



Роли озвучивали: Синда Адамс (Nurse Baxter), Грант Джордж (Daniel)

Роли дублировали: Александр Якин, Людмила Артемьева, Михаил Башкатов, Роман Юнусов, Федор Добронравов



Описание: Любопытный рыжий кот попадает в дом старого фокусника и узнает секрет его трюков. Так начинается его знакомство с учеными зверями и живыми игрушками, а также невероятные приключения полные юмора и опасностей.



Доп. инфо: Очень глубокое 3Д!



Премьера: 24 декабря 2013 (8 мая 2014)
Релиз на Blu-Ray (DVD) (Россия): 10 июня 2014
Бюджет: $34 000 000






Качество: BDRip (by Ash61)
Контейнер: MKV
Формат 3D: Half OverUnder / Вертикальная анаморфная стереопара
Порядок ракурсов: левый ракурс первый
Видео кодек: x264
Аудио кодек: AC3



Видео: AVC / 23,976 fps / 1920х1080p / ~6.8 Mbps

Аудио:
#1 - Русский / AC3 / 48 KHz / 2 ch / 192 Kbps (Дубляж - "чистый звук")
#2 - Английский / AC3 / 48 KHz / 5.1 ch / 640 Kbps
Отдельным файлом: Французский / AC3 / 48 KHz / 5.1 ch / 640 Kbps (Original - BD 3D)

Субтитры: Отсутствуют

General
Unique ID : 185786831665774940596627239070914873603 (0x8BC53E034BCDF45099244AC0F1708903)
Complete name : E:TheHouseOfMagic(2013)3D-halfOU(Ash61)ClearSoundTheHouseOfMagic(2013)3D-halfOU(Ash61)ClearSound.mkv
Format : Matroska
Format version : Version 2
File size : 4.65 GiB
Duration : 1h 25mn
Overall bit rate : 7 825 Kbps
Movie name : Кoт Гpoм и зaкoлдoванный дoм / Le Manoir Magique / The Hоusе of Mаgiс (2013) 3D
Encoded date : UTC 2014-05-19 21:57:34
Writing application : mkvmerge v5.8.0 ('No Sleep / Pillow') built on Sep 2 2012 15:37:04
Writing library : libebml v1.2.3 + libmatroska v1.3.0

Video
ID : 1
Format : AVC
Format/Info : Advanced Video Codec
Format profile : High@L4.1
Format settings, CABAC : Yes
Format settings, ReFrames : 4 frames
Codec ID : V_MPEG4/ISO/AVC
Duration : 1h 25mn
Bit rate : 6 838 Kbps
Width : 1 920 pixels
Height : 1 080 pixels
Display aspect ratio : 16:9
Frame rate mode : Constant
Frame rate : 23.976 fps
Color space : YUV
Chroma subsampling : 4:2:0
Bit depth : 8 bits
Scan type : Progressive
Bits/(Pixel*Frame) : 0.138
Stream size : 4.07 GiB (87%)
Title : BDRip by Ash61
Writing library : x264 core 129 r2245 bc13772
Encoding settings : cabac=1 / ref=4 / deblock=1:-3:-3 / analyse=0x3:0x113 / me=umh / subme=10 / psy=1 / psy_rd=1.00:0.15 / mixed_ref=1 / me_range=32 / chroma_me=1 / trellis=2 / 8x8dct=1 / cqm=0 / deadzone=21,11 / fast_pskip=1 / chroma_qp_offset=-3 / threads=12 / lookahead_threads=2 / sliced_threads=0 / nr=0 / decimate=1 / interlaced=0 / bluray_compat=0 / constrained_intra=0 / bframes=9 / b_pyramid=2 / b_adapt=2 / b_bias=0 / direct=3 / weightb=1 / open_gop=0 / weightp=2 / keyint=250 / keyint_min=23 / scenecut=40 / intra_refresh=0 / rc_lookahead=60 / rc=crf / mbtree=1 / crf=17.5 / qcomp=0.70 / qpmin=0 / qpmax=69 / qpstep=4 / vbv_maxrate=40000 / vbv_bufsize=30000 / crf_max=0.0 / nal_hrd=none / frame-packing=4 / ip_ratio=1.40 / aq=1:0.70
Language : French
Default : Yes
Forced : No

Audio #1
ID : 2
Format : AC-3
Format/Info : Audio Coding 3
Mode extension : CM (complete main)
Format settings, Endianness : Big
Codec ID : A_AC3
Duration : 1h 25mn
Bit rate mode : Constant
Bit rate : 192 Kbps
Channel(s) : 2 channels
Channel positions : Front: L R
Sampling rate : 48.0 KHz
Bit depth : 16 bits
Compression mode : Lossy
Stream size : 117 MiB (2%)
Title : Дубляж - "чистый звук"
Language : Russian
Default : Yes
Forced : No

Audio #2
ID : 3
Format : AC-3
Format/Info : Audio Coding 3
Mode extension : CM (complete main)
Format settings, Endianness : Big
Codec ID : A_AC3
Duration : 1h 25mn
Bit rate mode : Constant
Bit rate : 640 Kbps
Channel(s) : 6 channels
Channel positions : Front: L C R, Side: L R, LFE
Sampling rate : 48.0 KHz
Bit depth : 16 bits
Compression mode : Lossy
Stream size : 390 MiB (8%)
Language : English
Default : No
Forced : No

Menu
00:00:00.000 : :1
00:04:28.768 : :2
00:10:29.379 : :3
00:15:52.076 : :4
00:24:02.775 : :5
00:31:46.321 : :6
00:38:20.840 : :7
00:45:34.148 : :8
00:53:09.353 : :9
01:01:10.876 : :10
01:07:07.148 : :11
01:17:59.550 : :12





















   Похожие торренты   Торрент   Размер 
В этой теме нет новых непрочитанных сообщений. Кот Гром и заколдованный дом / Le Manoir Magique / The House of Magic (2013) BDRip 1080p от Ash61 | 3D-Video | halfOU | Лицензия

268 | 109

5.15 ГБ

В этой теме нет новых непрочитанных сообщений. Кот Гром и заколдованный дом / The House of Magic / Le Manoir Magique (2013) BDRip-AVC от HQCLUB

297 | 50

2.19 ГБ

В этой теме нет новых непрочитанных сообщений. Кот Гром и заколдованный дом / Le Manoir Magique / The House of Magic (2013) BDRip от HQCLUB | Лицензия

2350 | 128

1.45 ГБ

В этой теме нет новых непрочитанных сообщений. Кот Гром и заколдованный дом / Le Manoir Magique / The House of Magic (2013) BDRip-AVC от HELLYWOOD | Лицензия

1056 | 51

1.46 ГБ

В этой теме нет новых непрочитанных сообщений. Кот Гром и заколдованный дом / The House of Magic (2013) BDRip 1080p | Чистый звук | 3D-Video | HSBS

376 | 23

5.35 ГБ

В этой теме нет новых непрочитанных сообщений. Кот Гром и заколдованный дом / The House of Magic (2013) BDRip 1080p | Чистый звук

1169 | 71

5.15 ГБ

В этой теме нет новых непрочитанных сообщений. Кот Гром и заколдованный дом / The House of Magic (2013) BDRip 720p | Чистый звук

1079 | 61

3.64 ГБ




Вы не можете начинать темы
Вы не можете отвечать на сообщения
Вы не можете редактировать свои сообщения
Вы не можете удалять свои сообщения
Вы не можете добавлять вложения

Перейти:  
Для Мосгорсуда, Роскомнадзора и рекламодателей: mosgorsud-torrent[собачка]yandex.ru
 Вход
ppkBB3cker v.2 © 2008-2014 @ PPK
[ Time : 0.052s | 15 Queries | GZIP : Off ]

Торрент трекер RUTOR.IN, Не можете зайти на rutor.org? Какой новый адрес рутор? Какое зеркало рутор? Не работает rutor.org и зеркала? Тогда наш торрент специально для вас. Rutor.in неофициальное зеркало rutor. В случае если у Вас заблокирован rutor или вдруг Вы не можете на него зайти, то Вы без труда сможете скачать бесплатно и без рекламы последние новинки кино, игр, сериалов и прочего у нас, на Rutor.in. Не нужно использовать прокси, чтобы зайти на рутор, достаточно воспользоваться нашим ресурсом. Все новые фильмы, игры, сериалы, книги и музыка за 2013 и 2014 годы через торрент бесплатно. Скачивайте фильмы в хорошем качестве, игры для пк, xbox, playstation без регистрации. У нас вы найдете новые Зарубежные сериалы и Русские сериалы 2013, 2014, 2015 годов. Оставайтесь с нами, качайте любимые фильмы, игры, сериалы, книги и музыку.