img image001 image001 image001 image001 image001 image001 image001 image001 image001 image001 image001 image001 image001 image001 image001

Planets Sun Sun Sun
Статистика раздачи
Автор: Nickolas3434 | Размер: 1.77 ГБ | Добавлен: 25 май 2014
Раздают: 526    Качают: 17
Скачать торрент
Скачать торрент
Описание торрента

СообщениеДобавлено: 25 май 2014 

Информация о фильме
Название: Приключения мистера Пибоди и Шермана
Оригинальное название: Mr. Peabody & Sherman
Год выпуска: 2014
Жанр: Мультфильм, фантастика, комедия, приключения, семейный
Выпущено: США, Bullwinkle Studios, Classic Media Productions, DreamWorks Animation, Pacific Data Images (PDI)
Режиссер: Роб Минкофф
В ролях: Тай Буррелл, Макс Чарльз, Эриель Винтер, Стефен Колбер, Лесли Манн, Эллисон Джэнни, Стэнли Туччи, Том МакГрат, Лэйк Белл, Зак Каллисон

О фильме: Мистер Пибоди — бизнесмен, изобретатель, ученый, нобелевский лауреат, гурман, двукратный олимпийский чемпион и гений… который кроме всего прочего является собакой. При помощи своего самого неординарного изобретения — машины ВЕЙБЕК — мистер Пибоди и его приемный сын Шерман мгновенно перемещаются в прошлое, где становятся свидетелями самых важных исторических событий и общаются с известными историческими персонажами. Но когда Шерман нарушает правила путешествий во времени, нашим героям приходится вновь отправиться в путь — на сей раз с целью восстановления цепи исторических событий и спасения будущего. Кроме того, мистеру Пибоди предстоит справиться с самой сложной для него задачей — стать настоящим отцом для Шермана.



Файл
Качество: WEB-DLRip (AVC)
Видео: MPEG-4 AVC, 2349 Кбит/с, 1024x576
Аудио: Русский (AC3, 2 ch, 128 Кбит/с), английский (AC3, 2 ch, 256 Кбит/c)
Продолжительность: 01:32:28
Перевод: Дублированный [Чистый звук]
Субтитры: Китайские (вшитые)

General
Unique ID : 192616538401966637172976892130087352470 (0x90E8988D824E8A93970746B6470B3896)
Complete name : C:P1b0dy.i.Sherman.2014.D.WEB-DLRip.AVC.ExKinoRay.mkv
Format : Matroska
Format version : Version 2
File size : 1.77 GiB
Duration : 1h 32mn
Overall bit rate : 2 735 Kbps
Movie name : Mr. Peabody & Sherman from ExKinoRay
Encoded date : UTC 2014-05-21 00:16:31
Writing application : mkvmerge v4.9.1 ('Ich will') built on Jul 11 2011 23:53:15
Writing library : libebml v1.2.1 + libmatroska v1.1.1

Video
ID : 1
Format : AVC
Format/Info : Advanced Video Codec
Format profile : High@L4.1
Format settings, CABAC : Yes
Format settings, ReFrames : 8 frames
Codec ID : V_MPEG4/ISO/AVC
Duration : 1h 32mn
Bit rate : 2 349 Kbps
Width : 1 024 pixels
Height : 576 pixels
Display aspect ratio : 16:9
Frame rate mode : Constant
Frame rate : 25.000 fps
Color space : YUV
Chroma subsampling : 4:2:0
Bit depth : 8 bits
Scan type : Progressive
Bits/(Pixel*Frame) : 0.159
Stream size : 1.48 GiB (84%)
Title : Enigma-Vladislav71
Writing library : x264 core 116 r2044 392e762
Encoding settings : cabac=1 / ref=8 / deblock=1:-2:-2 / analyse=0x3:0x113 / me=umh / subme=9 / psy=1 / psy_rd=1.00:0.20 / mixed_ref=1 / me_range=32 / chroma_me=1 / trellis=2 / 8x8dct=1 / cqm=0 / deadzone=21,11 / fast_pskip=0 / chroma_qp_offset=-3 / threads=12 / sliced_threads=0 / nr=0 / decimate=0 / interlaced=0 / bluray_compat=0 / constrained_intra=0 / bframes=8 / b_pyramid=2 / b_adapt=2 / b_bias=0 / direct=3 / weightb=1 / open_gop=0 / weightp=2 / keyint=250 / keyint_min=25 / scenecut=40 / intra_refresh=0 / rc=2pass / mbtree=0 / bitrate=2349 / ratetol=1.0 / qcomp=0.60 / qpmin=0 / qpmax=69 / qpstep=4 / cplxblur=20.0 / qblur=0.5 / ip_ratio=1.40 / pb_ratio=1.30 / aq=1:1.00
Default : Yes
Forced : No

Audio #1
ID : 2
Format : AC-3
Format/Info : Audio Coding 3
Mode extension : CM (complete main)
Format settings, Endianness : Big
Codec ID : A_AC3
Duration : 1h 32mn
Bit rate mode : Constant
Bit rate : 128 Kbps
Channel(s) : 2 channels
Channel positions : Front: L R
Sampling rate : 48.0 KHz
Bit depth : 16 bits
Compression mode : Lossy
Delay relative to video : 24ms
Stream size : 84.7 MiB (5%)
Title : [Чистый звук]
Language : Russian
Default : No
Forced : No

Audio #2
ID : 3
Format : AC-3
Format/Info : Audio Coding 3
Mode extension : CM (complete main)
Format settings, Endianness : Big
Codec ID : A_AC3
Duration : 1h 32mn
Bit rate mode : Constant
Bit rate : 256 Kbps
Channel(s) : 2 channels
Channel positions : Front: L R
Sampling rate : 48.0 KHz
Bit depth : 16 bits
Compression mode : Lossy
Stream size : 169 MiB (9%)
Language : English
Default : No
Forced : No






Релиз от:

Авторы релиза:



   Похожие торренты   Торрент   Размер 
В этой теме нет новых непрочитанных сообщений. Приключения мистера Пибоди и Шермана / Mr. Peabody & Sherman (2014) WEB-DLRip | Чистый звук

497 | 19

703.47 МБ

В этой теме нет новых непрочитанных сообщений. Приключения мистера Пибоди и Шермана / Mr. Peabody & Sherman (2014) WEB-DLRip | Чистый звук

1449 | 54

1.37 ГБ

В этой теме нет новых непрочитанных сообщений. Приключения мистера Пибоди и Шермана / Mr. Peabody & Sherman (2014) WEB-DLRip 720p | Чистый звук

2629 | 117

2.68 ГБ

В этой теме нет новых непрочитанных сообщений. Приключения мистера Пибоди и Шермана / Mr. Peabody & Sherman (2014) WEB-DLRip | Звук c TS

170 | 4

705.16 МБ

В этой теме нет новых непрочитанных сообщений. Приключения мистера Пибоди и Шермана / Mr. Peabody & Sherman (2014) WEB-DLRip | Звук c TS

1085 | 11

1.37 ГБ

В этой теме нет новых непрочитанных сообщений. Приключения мистера Пибоди и Шермана / Mr. Peabody & Sherman (2014) WEB-DLRip-AVC от ExKinoRay | iTunes

692 | 91

2.16 ГБ

В этой теме нет новых непрочитанных сообщений. Приключения мистера Пибоди и Шермана / Mr. Peabody & Sherman (2014) HDRip-AVC от ExKinoRay | iTunes

129 | 10

1.77 ГБ




Вы не можете начинать темы
Вы не можете отвечать на сообщения
Вы не можете редактировать свои сообщения
Вы не можете удалять свои сообщения
Вы не можете добавлять вложения

Перейти:  
Для Мосгорсуда, Роскомнадзора и рекламодателей: mosgorsud-torrent[собачка]yandex.ru
 Вход
ppkBB3cker v.2 © 2008-2014 @ PPK
[ Time : 0.067s | 15 Queries | GZIP : Off ]

Торрент трекер RUTOR.IN, Не можете зайти на rutor.org? Какой новый адрес рутор? Какое зеркало рутор? Не работает rutor.org и зеркала? Тогда наш торрент специально для вас. Rutor.in неофициальное зеркало rutor. В случае если у Вас заблокирован rutor или вдруг Вы не можете на него зайти, то Вы без труда сможете скачать бесплатно и без рекламы последние новинки кино, игр, сериалов и прочего у нас, на Rutor.in. Не нужно использовать прокси, чтобы зайти на рутор, достаточно воспользоваться нашим ресурсом. Все новые фильмы, игры, сериалы, книги и музыка за 2013 и 2014 годы через торрент бесплатно. Скачивайте фильмы в хорошем качестве, игры для пк, xbox, playstation без регистрации. У нас вы найдете новые Зарубежные сериалы и Русские сериалы 2013, 2014, 2015 годов. Оставайтесь с нами, качайте любимые фильмы, игры, сериалы, книги и музыку.