img image001 image001 image001 image001 image001 image001 image001 image001 image001 image001 image001 image001 image001 image001 image001

Planets Sun Sun Sun
Статистика раздачи
Автор: Nickolas3434 | Размер: 744.76 МБ | Добавлен: 25 май 2014
Раздают: 40    Качают: 8
Скачать торрент
Скачать торрент
Описание торрента

СообщениеДобавлено: 25 май 2014 

Страна: США
Производство: Walt Disney Home Video, Walt Disney Television Animation

Жанр: мультфильм, мюзикл, фэнтези, мелодрама, приключения, семейный
Год выпуска: 1994
Продолжительность: 01:06:16

Перевод: Профессиональный (полное дублирование)
Оригинальная аудиодорожка: нет
Cубтитры: нет

Режиссер: Тоби Шелтон, Тэд Стоунз, Элан Зэслов / Toby Shelton, Tad Stones, Alan Zaslove

В ролях:
Джейсон Александр, Джонатан Фриман, Джефф Беннетт, Гилберт Готтфрид, Вэл Бэттин, Брэд Кэйн, Лиз Колэуэй, Линда Ларкин, Дэн Кастелланета, Б.Дж. Уорд...

Роли дублировали:
Валерий Захарьев, Вадим Никитин, Андрей Машков, Вадим Яковлев, Андрей Кузнецов...

Описание:
Продолжение волшебной сказки об Аладдине. Вторая часть захватывающей трилогии о храбром уличном воришке начинается прямо там, где закончился первый мультфильм. Уже казалось бы, что черному чародею и новоявленному джинну Джафару суждено навеки остаться пленником волшебной лампы, — но ему удается освободиться! И на уме у коварного злодея лишь одно: он жаждет отомстить Аладдину. А тем временем, в Аграбе жизнь идет своим чередом. Неунывающий проказник Джинн вернулся из кругосветного путешествия, и рассказывает друзьям невероятные истории о своих приключениях. Но счастье продлится недолго. Нашим героям вновь придется встретиться с Джафаром лицом к лицу, и им пригодится вся их магия и отвага. Немало препятствий встанет на пути наших старых знакомых Аладдина, принцессы Джасмин, Абу, Коврика и (конечно же!) Джинна. Тут и сражения с ворами на летающих лошадях, и объятые пламенем клокочущие расщелины с лавой. Но отступить нельзя — ведь на кону судьба всего королевства!





Исходник: DVD9 R5
Тип релиза: DVDRip
Контейнер: AVI

Видео: 688x512 (4:3), 25 fps, XviD ~ 1433 kbps avg, 0.163 bit/pixel
Аудио: 48 kHz, MP3 2.0, 128 kbps

Раздача от:
Общее
Полное имя : ДжафараVozvrashenie.djafara.1994.DVDRip-745_[New-team]_by_AVP_Studio.avi
Формат : AVI
Формат/Информация : Audio Video Interleave
Размер файла : 745 Мбайт
Продолжительность : 1 ч. 6 м.
Общий поток : 1571 Кбит/сек
Программа кодирования : VirtualDubModRus 1.5.10.2 (build 2542/release)
Библиотека кодирования : VirtualDubMod build 2542/release

Видео
Идентификатор : 0
Формат : MPEG-4 Visual
Профиль формата : Advanced Simple@L5
Параметр BVOP формата : 1
Параметр QPel формата : Нет
Параметр GMC формата : Без точки перехода
Параметр матрицы формата : Выборочная
Идентификатор кодека : XVID
Идентификатор кодека/Подсказка : XviD
Продолжительность : 1 ч. 6 м.
Битрейт : 1433 Кбит/сек
Ширина : 688 пикселей
Высота : 512 пикселей
Соотношение сторон : 4:3
Частота кадров : 25,000 кадров/сек
Цветовое пространство : YUV
Субдискретизация насыщенности : 4:2:0
Битовая глубина : 8 бит
Тип развёртки : Прогрессивная
Метод сжатия : С потерями
Бит/(Пиксели*Кадры) : 0.163
Размер потока : 679 Мбайт (91%)
Библиотека кодирования : XviD 73

Аудио
Идентификатор : 1
Формат : MPEG Audio
Версия формата : Version 1
Профиль формата : Layer 3
Идентификатор кодека : 55
Идентификатор кодека/Подсказка : MP3
Продолжительность : 1 ч. 6 м.
Вид битрейта : Постоянный
Битрейт : 128 Кбит/сек
Каналы : 2 канала
Частота : 48,0 КГц
Метод сжатия : С потерями
Размер потока : 60,7 Мбайт (8%)
Выравнивание : Соединение по промежуткам
Продолжительность промежутка : 40 мс. (1,00 видеокадр)
Время предзагрузки промежутка : 504 мс.
Библиотека кодирования : LAME3.99r
Настройки программы : -m s -V 4 -q 2 -lowpass 17 -b 128





   Похожие торренты   Торрент   Размер 
В этой теме нет новых непрочитанных сообщений. Возвращение Джафара / The Return Of Jafar (1994) DVDRip-AVC от New-Team

119 | 9

1.09 ГБ

В этой теме нет новых непрочитанных сообщений. Возвращение Джафара / The Return Of Jafar (1994) DVDRip от New-Team

18 | 5

1.1 ГБ

В этой теме нет новых непрочитанных сообщений. Аладдин-2. Возвращение Джафара / The Return of Jafar (1994) DVDRip

437 | 15

1.33 ГБ

В этой теме нет новых непрочитанных сообщений. Аладдин-2. Возвращение Джафара / The Return of Jafar (1994) DVDRip от Generalfilm | КПК

280 | 10

227.62 МБ

В этой теме нет новых непрочитанных сообщений. Возвращение Джафара / The Return of Jafar (1994) BDRip от HQCLUB

22 | 4

1.09 ГБ

В этой теме нет новых непрочитанных сообщений. Возвращение Джафара / The Return of Jafar (1994) BDRip 720p | D

0 | 118

1.53 ГБ

В этой теме нет новых непрочитанных сообщений. Возвращение в Затерянный мир / Return to the Lost World (1992) DVDRip от New-Team | P

73 | 21

1.46 ГБ




Вы не можете начинать темы
Вы не можете отвечать на сообщения
Вы не можете редактировать свои сообщения
Вы не можете удалять свои сообщения
Вы не можете добавлять вложения

Перейти:  
Для Мосгорсуда, Роскомнадзора и рекламодателей: mosgorsud-torrent[собачка]yandex.ru
 Вход
ppkBB3cker v.2 © 2008-2014 @ PPK
[ Time : 0.046s | 15 Queries | GZIP : Off ]

Торрент трекер RUTOR.IN, Не можете зайти на rutor.org? Какой новый адрес рутор? Какое зеркало рутор? Не работает rutor.org и зеркала? Тогда наш торрент специально для вас. Rutor.in неофициальное зеркало rutor. В случае если у Вас заблокирован rutor или вдруг Вы не можете на него зайти, то Вы без труда сможете скачать бесплатно и без рекламы последние новинки кино, игр, сериалов и прочего у нас, на Rutor.in. Не нужно использовать прокси, чтобы зайти на рутор, достаточно воспользоваться нашим ресурсом. Все новые фильмы, игры, сериалы, книги и музыка за 2013 и 2014 годы через торрент бесплатно. Скачивайте фильмы в хорошем качестве, игры для пк, xbox, playstation без регистрации. У нас вы найдете новые Зарубежные сериалы и Русские сериалы 2013, 2014, 2015 годов. Оставайтесь с нами, качайте любимые фильмы, игры, сериалы, книги и музыку.