img image001 image001 image001 image001 image001 image001 image001 image001 image001 image001 image001 image001 image001 image001 image001

Planets Sun Sun Sun
Статистика раздачи
Автор: Nickolas3434 | Размер: 1.37 ГБ | Добавлен: 25 май 2014
Раздают: 49    Качают: 8
Скачать торрент
Скачать торрент
Описание торрента

СообщениеДобавлено: 25 май 2014 

Информация о фильме
Название: Конг: Возвращение в джунгли
Оригинальное название: Kong: Return To The Jungle
Год выхода: 2006
Жанр: Мультфильм, приключения, семейный
Режиссер: Стюарт Эванс / Stewart Evans
В ролях: Дафна Голдрик, Сэффрон Хендерсон, Дэвид Кэй, Скотт МакНил, Кирби Морроу

О фильме:
Наш герой понимает, что он закован в клетке вместе с другими дикими животными острова Конг.
Их всех зовут в самый что ни есть настоящий зоопарк острова Манхеттен.
Если вы со страхом думаете, что наш Конг снова станет великой угрозой всему живому, как его предок, вы ошибаетесь! Это совсем не тот Конг!

Страна: Великобритания
Студия: BKN New Media
Продолжительность: 01:18:44
Перевод: Профессиональный (дублированный) Лицензия

Файл
Кодек: h.264 (MKV)
Качество: DVDRip-AVC
Видео: AVC, 768 x 576, ~1996 kbps
Звук: AC-3, 6 ch, 448 kbps
Субтитры: нет

Общее
Уникальный идентификатор : 168348648403719580577546155723716462494 (0x7EA6C532C2870C1E037BA147C20E879E)
Полное имя : F:Конг Возвращение в джунгли Kong Return To The Jungle [2006]kong_return_to_the_jungle (2006) DVD-AVC.mkv
Формат : Matroska
Версия формата : Version 2
Размер файла : 1,37 Гбайт
Продолжительность : 1 ч. 18 м.
Режим общего битрейта : Переменный
Общий поток : 2494 Кбит/сек
Программа кодирования : Lavf51.12.1
Библиотека кодирования : Lavf51.12.1

Видео
Идентификатор : 1
Формат : AVC
Формат/Информация : Advanced Video Codec
Профиль формата : Baseline@L3.1
Параметр CABAC формата : Нет
Параметр ReFrames формата : 1 кадр
Параметр GOP формата : M=1, N=12
Идентификатор кодека : V_MPEG4/ISO/AVC
Продолжительность : 1 ч. 18 м.
Вид битрейта : Переменный
Битрейт : 1996 Кбит/сек
Максимальный битрейт : 2940 Кбит/сек
Ширина : 768 пикселей
Высота : 576 пикселей
Соотношение сторон : 4:3
Режим частоты кадров : Постоянный
Частота кадров : 25,000 кадров/сек
Частота кадров в оригинале : 24,000 кадра/сек
Цветовое пространство : YUV
Субдискретизация насыщенности : 4:2:0
Битовая глубина : 8 бит
Тип развёртки : Прогрессивная
Бит/(Пиксели*Кадры) : 0.181
Размер потока : 1,10 Гбайт (80%)
Default : Да
Forced : Нет

Аудио
Идентификатор : 2
Формат : AC-3
Формат/Информация : Audio Coding 3
Расширение режима : CM (complete main)
Параметр Endianness формата : Big
Идентификатор кодека : A_AC3
Продолжительность : 1 ч. 18 м.
Вид битрейта : Постоянный
Битрейт : 448 Кбит/сек
Каналы : 6 каналов
Расположение каналов : Front: L C R, Side: L R, LFE
Частота : 48,0 КГц
Битовая глубина : 16 бит
Метод сжатия : С потерями
Размер потока : 252 Мбайт (18%)
Default : Да
Forced : Нет



   Похожие торренты   Торрент   Размер 
В этой теме нет новых непрочитанных сообщений. Конг: Возвращение в джунгли / Kong: Return To The Jungle (2006) DVDRip от KinoRay & Sheikn

45 | 4

1003.82 МБ

В этой теме нет новых непрочитанных сообщений. Кинг Конг Даунъ / King Kong (2006) DVDRip

60 | 5

699.46 МБ

В этой теме нет новых непрочитанных сообщений. Джунгли / The Jungle (2013) DVDRip | Лицензия

55 | 5

1.37 ГБ

В этой теме нет новых непрочитанных сообщений. Джунгли / The Jungle (2013) DVDRip | Лицензия

27 | 3

699.33 МБ

В этой теме нет новых непрочитанных сообщений. Из джунглей в джунгли / Jungle 2 Jungle (1997) DVDRip от Киномагия

25 | 1

1.37 ГБ

В этой теме нет новых непрочитанных сообщений. Конг - король Атлантиды / Kong: King of Atlantis (2005) DVD5 от New-Team | P | Лицензия

33 | 14

3.59 ГБ

В этой теме нет новых непрочитанных сообщений. Кинг Конг / King Kong (1933) DVDRip

3 | 4

1.46 ГБ




Вы не можете начинать темы
Вы не можете отвечать на сообщения
Вы не можете редактировать свои сообщения
Вы не можете удалять свои сообщения
Вы не можете добавлять вложения

Перейти:  
Для Мосгорсуда, Роскомнадзора и рекламодателей: mosgorsud-torrent[собачка]yandex.ru
 Вход
ppkBB3cker v.2 © 2008-2014 @ PPK
[ Time : 0.035s | 15 Queries | GZIP : Off ]

Торрент трекер RUTOR.IN, Не можете зайти на rutor.org? Какой новый адрес рутор? Какое зеркало рутор? Не работает rutor.org и зеркала? Тогда наш торрент специально для вас. Rutor.in неофициальное зеркало rutor. В случае если у Вас заблокирован rutor или вдруг Вы не можете на него зайти, то Вы без труда сможете скачать бесплатно и без рекламы последние новинки кино, игр, сериалов и прочего у нас, на Rutor.in. Не нужно использовать прокси, чтобы зайти на рутор, достаточно воспользоваться нашим ресурсом. Все новые фильмы, игры, сериалы, книги и музыка за 2013 и 2014 годы через торрент бесплатно. Скачивайте фильмы в хорошем качестве, игры для пк, xbox, playstation без регистрации. У нас вы найдете новые Зарубежные сериалы и Русские сериалы 2013, 2014, 2015 годов. Оставайтесь с нами, качайте любимые фильмы, игры, сериалы, книги и музыку.