img image001 image001 image001 image001 image001 image001 image001 image001 image001 image001 image001 image001 image001 image001 image001

Planets Sun Sun Sun
Статистика раздачи
Автор: Nickolas3434 | Размер: 1.46 ГБ | Добавлен: 25 май 2014
Раздают: 880    Качают: 126
Скачать торрент
Скачать торрент
Описание торрента

СообщениеДобавлено: 25 май 2014 


Страна: США / MoonScoop

Жанр: мультфильм, семейный, детский
Год выпуска: 2014
Продолжительность: 01:16:43

Перевод: Профессиональный (дублированный)
Cубтитры: нет
Оригинальная аудиодорожка: нет

Режиссер: Боб Дусетте / Bob Doucette, Гари Херст / Gary Hurst, Боб Бакстер / Bob Baxter

В ролях: Шон-Райан Петерсен

Роли дублировали: Айза Долматова, Алёна Водонаева, Ксения Бородина

Описание: К подводным лодкам Олли и Бэт присоединяется их друг Бобси, который совершенно убежден, что является потомком «Пи-Ратов» — давних искателей легендарного клада.
Их путешествие за сокровищем наполнено чудесами, приключениями и, конечно, юмором, потому что по пятам за ним следует банда Красных Морских Коньков под предводительством интеллигентной, но крайне опасной Акулы… Но даже это не смогло остановить наших героев! Олли, Бэт и Бобси переживут сильный шторм, преодолеют все препятствия и в конце концов смогут найти клад!



Качество: DVDRip / DVD5 R5 от АКМ
Формат: AVI

Видео: 720x400 (16:9), 25.000 fps, XviD, ~2260 kbps avg, 0.314 bit/pix
Аудио: Russian: 48 kHz, Dolby AC3, 6 ch, 448 kbps Const

Раздача от:
Общее
Полное имя : Olli.i.sokrovisha.piratov.2014.D.DVDRip_[New-Team]_by_avproh.avi
Формат : AVI
Формат/Информация : Audio Video Interleave
Размер файла : 1,46 Гбайт
Продолжительность : 1 ч. 16 м.
Общий поток : 2718 Кбит/сек
Программа кодирования : VirtualDubMod 1.5.10.3 | www.virtualdub-fr.org || (build 2550/release)
Библиотека кодирования : VirtualDubMod build 2550/release

Видео
Идентификатор : 0
Формат : MPEG-4 Visual
Профиль формата : Advanced Simple@L5
Параметр BVOP формата : 1
Параметр QPel формата : Нет
Параметр GMC формата : Без точки перехода
Параметр матрицы формата : Выборочная
Идентификатор кодека : XVID
Идентификатор кодека/Подсказка : XviD
Продолжительность : 1 ч. 16 м.
Битрейт : 2260 Кбит/сек
Ширина : 720 пикселей
Высота : 400 пикселей
Соотношение сторон : 16:9
Частота кадров : 25,000 кадров/сек
Цветовое пространство : YUV
Субдискретизация насыщенности : 4:2:0
Битовая глубина : 8 бит
Тип развёртки : Прогрессивная
Метод сжатия : С потерями
Бит/(Пиксели*Кадры) : 0.314
Размер потока : 1,21 Гбайт (83%)
Библиотека кодирования : XviD 73

Аудио
Идентификатор : 1
Формат : AC-3
Формат/Информация : Audio Coding 3
Расширение режима : CM (complete main)
Параметр Endianness формата : Big
Идентификатор кодека : 2000
Продолжительность : 1 ч. 16 м.
Вид битрейта : Постоянный
Битрейт : 448 Кбит/сек
Каналы : 6 каналов
Расположение каналов : Front: L C R, Side: L R, LFE
Частота : 48,0 КГц
Битовая глубина : 16 бит
Метод сжатия : С потерями
Размер потока : 246 Мбайт (16%)
Выравнивание : Разделение по промежуткам
Продолжительность промежутка : 40 мс. (1,00 видеокадр)
Время предзагрузки промежутка : 500 мс.





   Похожие торренты   Торрент   Размер 
В этой теме нет новых непрочитанных сообщений. Олли и сокровища пиратов / Dive Olly Dive and the Pirate Treasure (2014) DVDRip-AVC от New-Team | D | лицензия

267 | 36

1.46 ГБ

В этой теме нет новых непрочитанных сообщений. Олли и сокровища пиратов / Dive Olly Dive and the Pirate Treasure (2014) DVDRip от New-Team | D | лицензия

258 | 50

744.78 МБ

В этой теме нет новых непрочитанных сообщений. Олли и сокровища пиратов / Dive Olly Dive and the Pirate Treasure (2014) DVD5 R5 от New-Team | D | лицензия

93 | 25

3.27 ГБ

В этой теме нет новых непрочитанных сообщений. Олли и сокровища пиратов / Dive Olly Dive and the Pirate Treasure (2014) TS

259 | 7

1.37 ГБ

В этой теме нет новых непрочитанных сообщений. Олли и сокровища пиратов / Dive Olly Dive and the Pirate Treasure (2014) WEB-DLRip 720p

411 | 27

1.62 ГБ

В этой теме нет новых непрочитанных сообщений. Олли: Веселый грузовичок / Olly The Little White Van [01x01-52 из 52] (2011) Web-DLRip от New-Team | D

467 | 64

3.74 ГБ

В этой теме нет новых непрочитанных сообщений. Depth Hunter 2: Deep Dive (2014) PC | Лицензия

430 | 36

851.26 МБ




Вы не можете начинать темы
Вы не можете отвечать на сообщения
Вы не можете редактировать свои сообщения
Вы не можете удалять свои сообщения
Вы не можете добавлять вложения

Перейти:  
Для Мосгорсуда, Роскомнадзора и рекламодателей: mosgorsud-torrent[собачка]yandex.ru
 Вход
ppkBB3cker v.2 © 2008-2014 @ PPK
[ Time : 7.591s | 14 Queries | GZIP : Off ]

Торрент трекер RUTOR.IN, Не можете зайти на rutor.org? Какой новый адрес рутор? Какое зеркало рутор? Не работает rutor.org и зеркала? Тогда наш торрент специально для вас. Rutor.in неофициальное зеркало rutor. В случае если у Вас заблокирован rutor или вдруг Вы не можете на него зайти, то Вы без труда сможете скачать бесплатно и без рекламы последние новинки кино, игр, сериалов и прочего у нас, на Rutor.in. Не нужно использовать прокси, чтобы зайти на рутор, достаточно воспользоваться нашим ресурсом. Все новые фильмы, игры, сериалы, книги и музыка за 2013 и 2014 годы через торрент бесплатно. Скачивайте фильмы в хорошем качестве, игры для пк, xbox, playstation без регистрации. У нас вы найдете новые Зарубежные сериалы и Русские сериалы 2013, 2014, 2015 годов. Оставайтесь с нами, качайте любимые фильмы, игры, сериалы, книги и музыку.