img image001 image001 image001 image001 image001 image001 image001 image001 image001 image001 image001 image001 image001 image001 image001

Planets Sun Sun Sun
Статистика раздачи
Автор: Nickolas3434 | Размер: 1.19 ГБ | Добавлен: 27 май 2014
Раздают: 495    Качают: 59
Скачать торрент
Скачать торрент
Описание торрента

СообщениеДобавлено: 27 май 2014 

Информация о фильме
Название: Букашки. Приключение в Долине муравьев
Оригинальное название: Minuscule - La vallée des fourmis perdues
Год выхода: 2013
Жанр: мультфильм, приключения, семейный
Режиссер: Хелен Жиро, Томас Забо
О фильме: «Самые гигантские планы - у самых маленьких!»
Активные и любознательные черные муравьишки обнаруживают брошенную после пикника коробку с сахаром. Дружный отряд муравьишек вместе с Божьей коровкой решают переправить лакомство в муравейник. Но сладкая коробка уже успела нарушить спокойствие во всей долине, и свои планы на лакомство появились у других обитателей леса, в частности — у злобных красных муравьев-захватчиков. А, стало быть, на пути к заветной цели черным муравьишкам предстоит преодолеть массу опасностей и приключений.


Страна: Франция
Студия: Entre Chien et Loup, Futurikon, Nozon…
Продолжительность: 01:24:42
Перевод: не требуется

Файл
Кодек: h.264 (MKV)
Качество: WEB-DLRip-AVC
Видео: AVC, 1024 x 432, ~1780 kbps
Звук: AC-3, 2 ch, 192 kbps
Субтитры: нет

Семпл

Общее
Полное имя : F:Букашки. Приключение в Долине муравьев Minuscule - La vallée des fourmis perdues (2013)Pr1kljuch3nie.v.D0line.murav1ev.2013.WEB-DLRip-AVC.mkv
Формат : Matroska
Версия формата : Version 1
Размер файла : 1,19 Гбайт
Продолжительность : 1 ч. 24 м.
Общий поток : 2012 Кбит/сек
Дата кодирования : UTC 2014-05-26 07:11:51
Библиотека кодирования : WonderShare Matroska Muxer

Видео
Идентификатор : 1
Формат : AVC
Формат/Информация : Advanced Video Codec
Профиль формата : Baseline@L3.0
Параметр CABAC формата : Нет
Параметр ReFrames формата : 1 кадр
Параметр GOP формата : M=1, N=25
Идентификатор кодека : V_MPEG4/ISO/AVC
Продолжительность : 1 ч. 24 м.
Битрейт : 1780 Кбит/сек
Ширина : 1024 пикселя
Высота : 432 пикселя
Соотношение сторон : 2,40:1
Режим частоты кадров : Постоянный
Частота кадров : 25,000 кадров/сек
Цветовое пространство : YUV
Субдискретизация насыщенности : 4:2:0
Битовая глубина : 8 бит
Тип развёртки : Прогрессивная
Бит/(Пиксели*Кадры) : 0.161
Размер потока : 1,05 Гбайт (88%)
Default : Да
Forced : Нет

Аудио
Идентификатор : 2
Формат : AC-3
Формат/Информация : Audio Coding 3
Расширение режима : CM (complete main)
Параметр Endianness формата : Big
Идентификатор кодека : A_AC3
Продолжительность : 1 ч. 24 м.
Вид битрейта : Постоянный
Битрейт : 192 Кбит/сек
Каналы : 2 канала
Расположение каналов : Front: L R
Частота : 48,0 КГц
Битовая глубина : 16 бит
Метод сжатия : С потерями
Размер потока : 116 Мбайт (10%)
Default : Да
Forced : Нет



   Похожие торренты   Торрент   Размер 
В этой теме нет новых непрочитанных сообщений. Букашки. Приключение в Долине муравьев / Minuscule - La vallée des fourmis perdues (2013) WEB-DLRip

521 | 24

1.37 ГБ

В этой теме нет новых непрочитанных сообщений. Букашки. Приключение в Долине муравьев / Minuscule - La vallée des fourmis perdues (2013) WEB-DLRip

2383 | 218

1.37 ГБ

В этой теме нет новых непрочитанных сообщений. Букашки. Приключение в Долине муравьев / Minuscule - La vallée des fourmis perdues (2013) WEB-DLRip

334 | 40

701.17 МБ

В этой теме нет новых непрочитанных сообщений. Букашки. Приключение в Долине муравьев / Minuscule - La vallée des fourmis perdues (2013) WEB-DLRip-AVC от EXKinoRay

79 | 17

1.01 ГБ

В этой теме нет новых непрочитанных сообщений. Букашки. Приключение в Долине муравьев / Minuscule - La vallée des fourmis perdues (2013) BDRip-AVC

1231 | 107

1.46 ГБ

В этой теме нет новых непрочитанных сообщений. Букашки. Приключение в Долине муравьев / Minuscule - La vallée des fourmis perdues (2013) WEB-DL 720p

948 | 78

1.15 ГБ

В этой теме нет новых непрочитанных сообщений. Букашки. Приключение в Долине муравьев / Minuscule - La vallée des fourmis perdues (2013) BDRip-AVC от HELLYWOOD

524 | 34

1.46 ГБ




Вы не можете начинать темы
Вы не можете отвечать на сообщения
Вы не можете редактировать свои сообщения
Вы не можете удалять свои сообщения
Вы не можете добавлять вложения

Перейти:  
Для Мосгорсуда, Роскомнадзора и рекламодателей: mosgorsud-torrent[собачка]yandex.ru
 Вход
ppkBB3cker v.2 © 2008-2014 @ PPK
[ Time : 0.039s | 17 Queries | GZIP : Off ]

Торрент трекер RUTOR.IN, Не можете зайти на rutor.org? Какой новый адрес рутор? Какое зеркало рутор? Не работает rutor.org и зеркала? Тогда наш торрент специально для вас. Rutor.in неофициальное зеркало rutor. В случае если у Вас заблокирован rutor или вдруг Вы не можете на него зайти, то Вы без труда сможете скачать бесплатно и без рекламы последние новинки кино, игр, сериалов и прочего у нас, на Rutor.in. Не нужно использовать прокси, чтобы зайти на рутор, достаточно воспользоваться нашим ресурсом. Все новые фильмы, игры, сериалы, книги и музыка за 2013 и 2014 годы через торрент бесплатно. Скачивайте фильмы в хорошем качестве, игры для пк, xbox, playstation без регистрации. У нас вы найдете новые Зарубежные сериалы и Русские сериалы 2013, 2014, 2015 годов. Оставайтесь с нами, качайте любимые фильмы, игры, сериалы, книги и музыку.
cron