img image001 image001 image001 image001 image001 image001 image001 image001 image001 image001 image001 image001 image001 image001 image001

Planets Sun Sun Sun
Статистика раздачи
Автор: Nickolas3434 | Размер: 1.66 ГБ | Добавлен: 28 май 2014
Раздают: 45    Качают: 17
Скачать торрент
Скачать торрент
Описание торрента

СообщениеДобавлено: 28 май 2014 

Информация о фильме
Название: Приключения Десперо
Оригинальное название: The Tale of Despereaux
Год выпуска: 2008
Жанр: Приключения, анимация, полнометражный, экранизация
Выпущено: Великобритания, США, Universal Pictures
Режиссер: Сэм Фелл, Роберт Стивенхейген
В ролях: Мэттью Бродерик, Дастин Хоффман, Эмма Уотсон, Трэйси Ульман, Кевин Клайн, Уильям Х. Мэйси, Стэнли Туччи, Киаран Хайндс, Робби Колтрейн, Тони Хейл, Фрэнсис Конрой, Фрэнк Ланджелла, Ричард Дженкинс, Кристофер Ллойд, Чарльз Шонесси, Сигурни Уивер, Сэм Фэлл, Бронсон Пинчот

О фильме: Экранизация сказки Кейт Дикамилло. В одной деревне, что раскинулась под замком, родился мышонок по имени Десперо. Ух ты, он такой сладенький, а посмотрите на его уши! В мире мышей можно жить правильно и неправильно. Но Десперо всё делает по-своему. В мире есть столько чудесных вещей, которых стоит бояться, но только не Десперо. Маленький мышонок Десперо - исключение среди мышей! Десперо - джентльмен! Не испугался, не побоялся, не убежал...



Файл
Качество: BDRip (AVC)
Видео: MPEG-4 AVC, 1640 Кбит/с, 1024x432
Аудио: Русский, английский (AC3, 6 ch, 448 Кбит/c)
Продолжительность: 01:33:34
Перевод: Дублированный
Субтитры: Английские, испанские, французские

General
Unique ID : 202907363637895067742552397539113184263 (0x98A68968E2E9F9DEAD187EACEC5C2C07)
Complete name : C:The.Tale.of.Despereaux.2008.D.BDRip.AVC.Rus.Eng.ExKinoRay.mkv
Format : Matroska
Format version : Version 2
File size : 1.66 GiB
Duration : 1h 33mn
Overall bit rate : 2 538 Kbps
Movie name : The Tale of Despereaux from ExKinoRay
Encoded date : UTC 2014-05-28 01:34:02
Writing application : mkvmerge v4.9.1 ('Ich will') built on Jul 11 2011 23:53:15
Writing library : libebml v1.2.1 + libmatroska v1.1.1

Video
ID : 1
Format : AVC
Format/Info : Advanced Video Codec
Format profile : High@L4.1
Format settings, CABAC : Yes
Format settings, ReFrames : 9 frames
Codec ID : V_MPEG4/ISO/AVC
Duration : 1h 33mn
Bit rate : 1 640 Kbps
Width : 1 024 pixels
Height : 432 pixels
Display aspect ratio : 2.40:1
Frame rate mode : Constant
Frame rate : 23.976 fps
Color space : YUV
Chroma subsampling : 4:2:0
Bit depth : 8 bits
Scan type : Progressive
Bits/(Pixel*Frame) : 0.155
Stream size : 1.04 GiB (63%)
Title : Enigma-Vladislav71
Writing library : x264 core 116 r2044 392e762
Encoding settings : cabac=1 / ref=9 / deblock=1:-2:-2 / analyse=0x3:0x113 / me=umh / subme=10 / psy=1 / psy_rd=1.00:0.20 / mixed_ref=1 / me_range=32 / chroma_me=1 / trellis=2 / 8x8dct=1 / cqm=0 / deadzone=21,11 / fast_pskip=0 / chroma_qp_offset=-3 / threads=12 / sliced_threads=0 / nr=0 / decimate=0 / interlaced=0 / bluray_compat=0 / constrained_intra=0 / bframes=8 / b_pyramid=2 / b_adapt=2 / b_bias=0 / direct=3 / weightb=1 / open_gop=0 / weightp=2 / keyint=240 / keyint_min=23 / scenecut=40 / intra_refresh=0 / rc=2pass / mbtree=0 / bitrate=1640 / ratetol=1.0 / qcomp=0.60 / qpmin=0 / qpmax=69 / qpstep=4 / cplxblur=20.0 / qblur=0.5 / ip_ratio=1.40 / pb_ratio=1.30 / aq=1:1.00
Language : English
Default : Yes
Forced : No

Audio #1
ID : 2
Format : AC-3
Format/Info : Audio Coding 3
Mode extension : CM (complete main)
Format settings, Endianness : Big
Codec ID : A_AC3
Duration : 1h 33mn
Bit rate mode : Constant
Bit rate : 448 Kbps
Channel(s) : 6 channels
Channel positions : Front: L C R, Side: L R, LFE
Sampling rate : 48.0 KHz
Bit depth : 16 bits
Compression mode : Lossy
Stream size : 300 MiB (18%)
Title : Dub
Language : Russian
Default : Yes
Forced : No

Audio #2
ID : 3
Format : AC-3
Format/Info : Audio Coding 3
Mode extension : CM (complete main)
Format settings, Endianness : Big
Codec ID : A_AC3
Duration : 1h 33mn
Bit rate mode : Constant
Bit rate : 448 Kbps
Channel(s) : 6 channels
Channel positions : Front: L C R, Side: L R, LFE
Sampling rate : 48.0 KHz
Bit depth : 16 bits
Compression mode : Lossy
Stream size : 300 MiB (18%)
Language : English
Default : No
Forced : No

Text #1
ID : 4
Format : UTF-8
Codec ID : S_TEXT/UTF8
Codec ID/Info : UTF-8 Plain Text
Title : SRT
Language : English
Default : No
Forced : No

Text #2
ID : 5
Format : UTF-8
Codec ID : S_TEXT/UTF8
Codec ID/Info : UTF-8 Plain Text
Title : SRT
Language : French
Default : No
Forced : No

Text #3
ID : 6
Format : UTF-8
Codec ID : S_TEXT/UTF8
Codec ID/Info : UTF-8 Plain Text
Title : SRT
Language : Spanish
Default : No
Forced : No

Menu
00:00:00.000 : en:1. Main Titles
00:02:15.761 : en:2. Soup Day
00:05:22.447 : en:3. A Royal Creation
00:09:31.654 : en:4. The Taste Test
00:14:18.191 : en:5. Terrible Sadness
00:16:47.381 : en:6. Mouseworld
00:22:46.448 : en:7. Ratworld
00:25:52.968 : en:8. Learning to Be Afraid
00:33:03.732 : en:9. Meeting the Princess
00:40:51.824 : en:10. Banished
00:43:02.288 : en:11. Into the Dungeon
00:48:38.916 : en:12. Playing Cat & Mouse
00:54:21.300 : en:13. A Noble Quest
01:00:56.611 : en:14. Broken-Hearted
01:05:22.252 : en:15. Taken Prisoner
01:09:27.121 : en:16. Soup's On
01:14:53.239 : en:17. Chivalry, Bravery, Honor
01:18:43.552 : en:18. Out of the Bag
01:24:18.595 : en:19. Forgiven
01:26:56.545 : en:20. End Titles





Релиз от:

Авторы релиза:



   Похожие торренты   Торрент   Размер 
В этой теме нет новых непрочитанных сообщений. Приключения Десперо / The Tale of Despereaux (2008) BDRip от HQCLUB

126 | 12

1.45 ГБ

В этой теме нет новых непрочитанных сообщений. Приключения Десперо / The Tale of Despereaux (2008) BDRip-AVC | iPad

9 | 1

1.53 ГБ

В этой теме нет новых непрочитанных сообщений. Приключения Десперо / The Tale of Despereaux (2008) BDRip 1080p

46 | 5

4.38 ГБ

В этой теме нет новых непрочитанных сообщений. Приключения Десперо / The Tale of Despereaux (2008) BDRip 720 от SuperMin

179 | 22

1.85 ГБ

В этой теме нет новых непрочитанных сообщений. Приключения Десперо / The Tale of Despereaux (2008) BDRip от HELLYWOOD

6 | 2

1.45 ГБ

В этой теме нет новых непрочитанных сообщений. Приключения Десперо / The Tale of Despereaux (2008) HDRip

26 | 3

747.67 МБ

В этой теме нет новых непрочитанных сообщений. Приключение Десперо / The tales of Despereaux (2008) PC

9 | 11

3.28 ГБ




Вы не можете начинать темы
Вы не можете отвечать на сообщения
Вы не можете редактировать свои сообщения
Вы не можете удалять свои сообщения
Вы не можете добавлять вложения

Перейти:  
Для Мосгорсуда, Роскомнадзора и рекламодателей: mosgorsud-torrent[собачка]yandex.ru
 Вход
ppkBB3cker v.2 © 2008-2014 @ PPK
[ Time : 0.029s | 15 Queries | GZIP : Off ]

Торрент трекер RUTOR.IN, Не можете зайти на rutor.org? Какой новый адрес рутор? Какое зеркало рутор? Не работает rutor.org и зеркала? Тогда наш торрент специально для вас. Rutor.in неофициальное зеркало rutor. В случае если у Вас заблокирован rutor или вдруг Вы не можете на него зайти, то Вы без труда сможете скачать бесплатно и без рекламы последние новинки кино, игр, сериалов и прочего у нас, на Rutor.in. Не нужно использовать прокси, чтобы зайти на рутор, достаточно воспользоваться нашим ресурсом. Все новые фильмы, игры, сериалы, книги и музыка за 2013 и 2014 годы через торрент бесплатно. Скачивайте фильмы в хорошем качестве, игры для пк, xbox, playstation без регистрации. У нас вы найдете новые Зарубежные сериалы и Русские сериалы 2013, 2014, 2015 годов. Оставайтесь с нами, качайте любимые фильмы, игры, сериалы, книги и музыку.