img image001 image001 image001 image001 image001 image001 image001 image001 image001 image001 image001 image001 image001 image001 image001

Planets Sun Sun Sun
Статистика раздачи
Автор: Nickolas3434 | Размер: 5.19 ГБ | Добавлен: 30 май 2014
Раздают: 318    Качают: 54
Скачать торрент
Скачать торрент
Описание торрента

СообщениеДобавлено: 30 май 2014 

Информация о фильме
Название: Реальная белка
Оригинальное название: The Nut Job
Год выхода: 2014
Жанр: мультфильм, комедия, приключения, семейный
Режиссер: Питер Лепениотис
В ролях: Уилл Арнетт, Брендан Фрейзер, Лиам Нисон, Кэтрин Хайгл, Стивен Лэнг, Майя Рудольф, Джефф Данэм, Гэбриел Иглесиас, Сара Гадон, Джеймс Ранкин

О фильме: Пытаясь выжить в городе, неразлучные друзья — белка Злюк и крысёнок Бадди натыкаются на магазин, до краёв набитый их любимым лакомством — орехами. Чувствуя, что «мечты сбываются», приятели планируют величайшее ограбление в истории грызунов. Но тут совсем некстати нарисовались бедные родственники из парка — прямо 13 друзей арахиса! Однако им всем невдомёк, что магазин орехов — лишь прикрытие для банды грабителей, которые намерены вырыть туннель под банк и подменить мешки с деньгами на мешки с теми самыми орехами.



Выпущено: Redrover Co., Ltd.
Продолжительность: 01:25:24
Перевод: Дублированный (лицензия)

Файл
Кодек: x264
Качество: BDRip (источник: Blu-ray Disc)
Видео: 1920x1036 (1,85:1), 23.976 fps, 8060 kbps
Аудио: AC-3, 6 ch, 640 kbps
Скачать: сэмпл

Скриншоты

Общее
Уникальный идентификатор : 190523992383779958693082414852383499169 (0x8F559611922F7C519CA413E85FFCE3A1)
Полное имя : The.Nut.Job.2014.BDRip.1080p.Rus.mkv
Формат : Matroska
Версия формата : Version 2
Размер файла : 5,19 Гбайт
Продолжительность : 1 ч. 25 м.
Общий поток : 8703 Кбит/сек
Название фильма : Реальная белка / The Nut Job (2014)
Дата кодирования : UTC 2014-05-28 17:41:33
Программа кодирования : mkvmerge v5.8.0 ('No Sleep / Pillow') built on Sep 2 2012 15:37:04
Библиотека кодирования : libebml v1.2.3 + libmatroska v1.3.0

Видео
Идентификатор : 1
Формат : AVC
Формат/Информация : Advanced Video Codec
Профиль формата : High@L4.1
Параметр CABAC формата : Да
Параметр ReFrames формата : 4 кадра
Идентификатор кодека : V_MPEG4/ISO/AVC
Продолжительность : 1 ч. 25 м.
Битрейт : 8062 Кбит/сек
Ширина : 1920 пикселей
Высота : 1036 пикселей
Соотношение сторон : 1,85:1
Режим частоты кадров : Постоянный
Частота кадров : 23,976 кадра/сек
Цветовое пространство : YUV
Субдискретизация насыщенности : 4:2:0
Битовая глубина : 8 бит
Тип развёртки : Прогрессивная
Бит/(Пиксели*Кадры) : 0.169
Размер потока : 4,71 Гбайт (91%)
Заголовок : Release by AlexKa
Библиотека кодирования : x264 core 142 r2431 ac76440
Настройки программы : cabac=1 / ref=4 / deblock=1:0:0 / analyse=0x3:0x133 / me=umh / subme=11 / psy=1 / psy_rd=1.00:0.00 / mixed_ref=1 / me_range=32 / chroma_me=1 / trellis=2 / 8x8dct=1 / cqm=0 / deadzone=21,11 / fast_pskip=0 / chroma_qp_offset=-2 / threads=12 / lookahead_threads=2 / sliced_threads=0 / nr=0 / decimate=0 / interlaced=0 / bluray_compat=0 / constrained_intra=0 / bframes=8 / b_pyramid=2 / b_adapt=2 / b_bias=0 / direct=3 / weightb=1 / open_gop=0 / weightp=2 / keyint=240 / keyint_min=23 / scenecut=40 / intra_refresh=0 / rc=2pass / mbtree=0 / bitrate=8062 / ratetol=1.0 / qcomp=0.60 / qpmin=0 / qpmax=69 / qpstep=4 / cplxblur=20.0 / qblur=0.5 / ip_ratio=1.40 / pb_ratio=1.30 / aq=1:1.00
Язык : English

Аудио
Идентификатор : 2
Формат : AC-3
Формат/Информация : Audio Coding 3
Расширение режима : CM (complete main)
Параметр Endianness формата : Big
Идентификатор кодека : A_AC3
Продолжительность : 1 ч. 25 м.
Вид битрейта : Постоянный
Битрейт : 640 Кбит/сек
Каналы : 6 каналов
Расположение каналов : Front: L C R, Side: L R, LFE
Частота : 48,0 КГц
Битовая глубина : 16 бит
Метод сжатия : С потерями
Размер потока : 391 Мбайт (7%)
Заголовок : Rus
Язык : Russian

Меню
00:00:00.000 : :Chapter 01
00:07:46.591 : :Chapter 02
00:14:15.104 : :Chapter 03
00:21:09.434 : :Chapter 04
00:29:39.694 : :Chapter 05
00:35:58.364 : :Chapter 06
00:43:50.419 : :Chapter 07
00:50:47.544 : :Chapter 08
00:57:54.929 : :Chapter 09
01:04:54.265 : :Chapter 10
01:08:28.562 : :Chapter 11
01:12:01.150 : :Chapter 12
01:25:23.701 : :Chapter 13
x264 [info]: frame I:1243 Avg QP:13.62 size:224602
x264 [info]: frame P:34360 Avg QP:16.47 size: 75112
x264 [info]: frame B:87243 Avg QP:17.61 size: 26396
x264 [info]: consecutive B-frames: 5.4% 6.3% 12.9% 39.3% 10.8% 21.9% 1.7% 0.9% 0.7%



   Похожие торренты   Торрент   Размер 
В этой теме нет новых непрочитанных сообщений. Реальная белка / The Nut Job (2014) BDRip 1080p | BaibaKo

1245 | 331

6.81 ГБ

В этой теме нет новых непрочитанных сообщений. Реальная белка / The Nut Job (2014) BDRip 1080p от CINEMANIA | D

483 | 83

6.15 ГБ

В этой теме нет новых непрочитанных сообщений. Реальная белка / The Nut Job (2014) BDRip 1080p от CINEMANIA | P, 2xL1

42 | 42

10.33 ГБ

В этой теме нет новых непрочитанных сообщений. Реальная белка / The Nut Job (2013) BDRip 1080p от Ash61 | 3D-Video | halfOU | L

182 | 120

5.23 ГБ

В этой теме нет новых непрочитанных сообщений. Реальная белка / The Nut Job (2013) BDRip 1080p от Ash61 | 3D-Video | halfOU | Лицензия

191 | 35

5.35 ГБ

В этой теме нет новых непрочитанных сообщений. Реальная белка / The Nut Job (2014) BDRip от New-Team | D, P

170 | 22

1.45 ГБ

В этой теме нет новых непрочитанных сообщений. Реальная белка / The Nut Job (2014) BDRip от New-Team | P | BaibaKo

933 | 361

1.45 ГБ




Вы не можете начинать темы
Вы не можете отвечать на сообщения
Вы не можете редактировать свои сообщения
Вы не можете удалять свои сообщения
Вы не можете добавлять вложения

Перейти:  
Для Мосгорсуда, Роскомнадзора и рекламодателей: mosgorsud-torrent[собачка]yandex.ru
 Вход
ppkBB3cker v.2 © 2008-2014 @ PPK
[ Time : 0.035s | 16 Queries | GZIP : Off ]

Торрент трекер RUTOR.IN, Не можете зайти на rutor.org? Какой новый адрес рутор? Какое зеркало рутор? Не работает rutor.org и зеркала? Тогда наш торрент специально для вас. Rutor.in неофициальное зеркало rutor. В случае если у Вас заблокирован rutor или вдруг Вы не можете на него зайти, то Вы без труда сможете скачать бесплатно и без рекламы последние новинки кино, игр, сериалов и прочего у нас, на Rutor.in. Не нужно использовать прокси, чтобы зайти на рутор, достаточно воспользоваться нашим ресурсом. Все новые фильмы, игры, сериалы, книги и музыка за 2013 и 2014 годы через торрент бесплатно. Скачивайте фильмы в хорошем качестве, игры для пк, xbox, playstation без регистрации. У нас вы найдете новые Зарубежные сериалы и Русские сериалы 2013, 2014, 2015 годов. Оставайтесь с нами, качайте любимые фильмы, игры, сериалы, книги и музыку.