img image001 image001 image001 image001 image001 image001 image001 image001 image001 image001 image001 image001 image001 image001 image001

Planets Sun Sun Sun
Статистика раздачи
Автор: Nickolas3434 | Размер: 1.19 ГБ | Добавлен: 30 май 2014
Раздают: 83    Качают: 14
Скачать торрент
Скачать торрент
Описание торрента

СообщениеДобавлено: 30 май 2014 

Информация о фильме
Название: Великолепный Гоша / Похождения Гоши Великолепного
Год выхода: 1981-1985
Жанр: мультфильм, комедия
Режиссер: Анатолий Солин
В ролях: Великолепный Гоша

О фильме:
Cерия комических фильмов о незадачливом Гоше, с которым вечно что-то случается.

01. «Великолепный Гоша. История первая» (1981 г.) - 00:03:20
02. «Великолепный Гоша. История вторая» (1981 г.) - 00:04:39
03. «Великолепный Гоша. История третья» (1981 г.) - 00:04:13
04. «Великолепный Гоша. История четвертая» (1982 г.) - 00:04:41
05. «Великолепный Гоша. История пятая» (1982 г.) - 00:03:00
06. «Великолепный Гоша. История шестая» (1982 г.) - 00:04:31
07. «Великолепный Гоша. История седьмая» (1982 г.) - 00:05:05
08. «Великолепный Гоша. История восьмая» (1983 г.) - 00:07:36
09. «Великолепный Гоша. История девятая» (1984 г.) - 00:04:56
10. «Великолепный Гоша. История десятая» (1985 г.) - 00:08:08




Страна: СССР
Студия: ТО Экран
Продолжительность: выпуск ~00:05:00
Перевод: не требуется

Файл
Кодек: h.264 (MKV)
Качество: DVDRip-AVC
Видео: AVC, 720 x 576, ~3065 kbps
Звук: AC-3, 2 ch, 256 kbps
Субтитры: нет

Общее
Уникальный идентификатор : 168348648403719580577546155723716462494 (0x7EA6C532C2870C1E037BA147C20E879E)
Полное имя : F:Великолепный Гоша (1981-1985)velikolepniy.gosha.mkv
Формат : Matroska
Версия формата : Version 2
Размер файла : 1,19 Гбайт
Продолжительность : 50 м.
Режим общего битрейта : Переменный
Общий поток : 3389 Кбит/сек
Программа кодирования : Lavf51.12.1
Библиотека кодирования : Lavf51.12.1

Видео
Идентификатор : 1
Формат : AVC
Формат/Информация : Advanced Video Codec
Профиль формата : Baseline@L3.0
Параметр CABAC формата : Нет
Параметр ReFrames формата : 1 кадр
Параметр GOP формата : M=1, N=12
Идентификатор кодека : V_MPEG4/ISO/AVC
Продолжительность : 50 м.
Вид битрейта : Переменный
Битрейт : 3065 Кбит/сек
Максимальный битрейт : 4500 Кбит/сек
Ширина : 720 пикселей
Высота : 576 пикселей
Соотношение сторон : 5:4
Соотношение сторон в оригинале : 1,278
Режим частоты кадров : Постоянный
Частота кадров : 25,000 кадров/сек
Частота кадров в оригинале : 24,000 кадра/сек
Стандарт вещания : PAL
Цветовое пространство : YUV
Субдискретизация насыщенности : 4:2:0
Битовая глубина : 8 бит
Тип развёртки : Прогрессивная
Бит/(Пиксели*Кадры) : 0.296
Размер потока : 1,08 Гбайт (90%)
Default : Да
Forced : Нет

Аудио
Идентификатор : 2
Формат : AC-3
Формат/Информация : Audio Coding 3
Расширение режима : CM (complete main)
Параметр Endianness формата : Big
Идентификатор кодека : A_AC3
Продолжительность : 50 м.
Вид битрейта : Постоянный
Битрейт : 256 Кбит/сек
Каналы : 2 канала
Расположение каналов : Front: L R
Частота : 48,0 КГц
Битовая глубина : 16 бит
Метод сжатия : С потерями
Размер потока : 92,0 Мбайт (8%)
Default : Да
Forced : Нет



   Похожие торренты   Торрент   Размер 
В этой теме нет новых непрочитанных сообщений. Великолепный Гоша [10 историй] (1981) DVDRip

1 | 2

550.44 МБ

В этой теме нет новых непрочитанных сообщений. Data - Studio albums (1981-1985) MP3

13 | 1

200.94 МБ

В этой теме нет новых непрочитанных сообщений. Nick Mason - Дискография [cтудийные альбомы] (1981 - 1985) APE

2 | 2

449.85 МБ

В этой теме нет новых непрочитанных сообщений. Nick Mason - Дискография [cтудийные альбомы] (1981 - 1985) MP3

20 | 24

187.78 МБ

В этой теме нет новых непрочитанных сообщений. Похождения Насреддина (1946) DVDRip от Generalfilm

36 | 6

1.37 ГБ

В этой теме нет новых непрочитанных сообщений. Похождения Насреддина (1946) DVDRip от New-Team

41 | 28

745.59 МБ

В этой теме нет новых непрочитанных сообщений. Похождения Насреддина (1946) DVDRip от New-Team

39 | 8

1.09 ГБ




Вы не можете начинать темы
Вы не можете отвечать на сообщения
Вы не можете редактировать свои сообщения
Вы не можете удалять свои сообщения
Вы не можете добавлять вложения

Перейти:  
Для Мосгорсуда, Роскомнадзора и рекламодателей: mosgorsud-torrent[собачка]yandex.ru
 Вход
ppkBB3cker v.2 © 2008-2014 @ PPK
[ Time : 0.031s | 17 Queries | GZIP : Off ]

Торрент трекер RUTOR.IN, Не можете зайти на rutor.org? Какой новый адрес рутор? Какое зеркало рутор? Не работает rutor.org и зеркала? Тогда наш торрент специально для вас. Rutor.in неофициальное зеркало rutor. В случае если у Вас заблокирован rutor или вдруг Вы не можете на него зайти, то Вы без труда сможете скачать бесплатно и без рекламы последние новинки кино, игр, сериалов и прочего у нас, на Rutor.in. Не нужно использовать прокси, чтобы зайти на рутор, достаточно воспользоваться нашим ресурсом. Все новые фильмы, игры, сериалы, книги и музыка за 2013 и 2014 годы через торрент бесплатно. Скачивайте фильмы в хорошем качестве, игры для пк, xbox, playstation без регистрации. У нас вы найдете новые Зарубежные сериалы и Русские сериалы 2013, 2014, 2015 годов. Оставайтесь с нами, качайте любимые фильмы, игры, сериалы, книги и музыку.