img image001 image001 image001 image001 image001 image001 image001 image001 image001 image001 image001 image001 image001 image001 image001

Planets Sun Sun Sun
Статистика раздачи
Автор: Nickolas3434 | Размер: 1.6 ГБ | Добавлен: 30 май 2014
Раздают: 177    Качают: 41
Скачать торрент
Скачать торрент
Описание торрента

СообщениеДобавлено: 30 май 2014 

Информация о фильме
Название: Заботливые Мишки: Путешествие в Шутляндию
Оригинальное название: Care Bears: Journey to Joke-a-Lot
Год выхода: 2004
Жанр: Мультфильм, мюзикл, фэнтези, комедия, семейный, полнометражный
Режиссер: Майк Фейлловс
Озвучивали: Джули Лемье, Стиви Вэлланс, Эндрю Сэбистон, Сьюзэн Роман, Сандай Мьюз, Роберт Тинклер, Стефани Бирд, Анджела Майорано, Линда Бэллентайн, Алессандра Каннито, Лен Карлсон, Нил Кроун, Катрин Дишер, Кэти Гриффин, Скотт МакКорд, Джеймс Ранкин, Адриан Трасс

О фильме: В один прекрасный день, когда над шутками Весельчака уже никто не смеется, он покидает свою страну в поисках места, где его чувство юмора будет оценено по достоинству. Дорога приводит его в сказочную страну Шутляндию, где юмор правит всем и Весельчак становится королем! Он восседает на троне, охраняя волшебные сокровища, таящие в себе магическую силу Шутляндии. Беспокоясь о своем пропавшем друге, Выручайка и Неунывайка вместе с другими Заботливыми мишками отправляются на поиски Весельчака и просят его вернуться домой. Что же он выберет: жизнь в королевских почестях или заботе любящих друзей? Останется ли Весельчак в стране, где все серьезное запрещено, а шутки правят всем, или вернется обратно? Все это вы узнаете, посмотрев великолепную музыкальную историю, наполненную радостью, смехом, любовью и заботой!



Страна: США, Канада / Family Home Entertainment (FHE), Lion's Gate Studios, Nelvana Limited
Продолжительность: 01:17:50
Перевод: Дублированный
Дата релиза: 29.05.2014

Файл
Кодек: MPEG-4 AVC
Качество: DVDRip (AVC)
Видео: 1024x576, 2500 Кбит/с
Звук: AC3, 6 ch, 448 Кбит/с

Семпл








Unique ID : 210519918342127594713649095832206723284 (0x9E60A9559B56785A954C4A5C7BA248D4)
Complete name : D:Zabotlivye.Mishki.Puteshestvie.v.Shutljandiju.2004.x264.DVDRip.(AVC).KinoRay.(Sheikn).mkv
Format : Matroska
Format version : Version 2
File size : 1.60 GiB
Duration : 1h 17mn
Overall bit rate : 2 950 Kbps
Encoded date : UTC 2014-05-28 18:03:04
Writing application : mkvmerge v5.0.1 ('Es ist Sommer') built on Nov 6 2011 16:23:40
Writing library : libebml v1.2.2 + libmatroska v1.3.0
Video #1
ID : 1
Format : AVC
Format/Info : Advanced Video Codec
Format profile : High@L4.1
Format settings, CABAC : Yes
Format settings, ReFrames : 5 frames
Codec ID : V_MPEG4/ISO/AVC
Duration : 1h 17mn
Bit rate : 2 500 Kbps
Width : 1 024 pixels
Height : 576 pixels
Display aspect ratio : 16:9
Original display aspect ratio : 16:9
Frame rate mode : Constant
Frame rate : 25.000 fps
Color space : YUV
Chroma subsampling : 4:2:0
Bit depth : 8 bits
Scan type : Progressive
Bits/(Pixel*Frame) : 0.170
Stream size : 1.33 GiB (83%)
Writing library : x264 core 119 r2106 07efeb4
Encoding settings : cabac=1 / ref=5 / deblock=1:-3:-3 / analyse=0x3:0x113 / me=hex / subme=9 / psy=1 / psy_rd=1.00:0.00 / mixed_ref=1 / me_range=16 / chroma_me=1 / trellis=2 / 8x8dct=1 / cqm=0 / deadzone=21,11 / fast_pskip=1 / chroma_qp_offset=-2 / threads=6 / sliced_threads=0 / nr=0 / decimate=1 / interlaced=0 / bluray_compat=0 / constrained_intra=0 / bframes=5 / b_pyramid=2 / b_adapt=1 / b_bias=0 / direct=1 / weightb=1 / open_gop=0 / weightp=1 / keyint=240 / keyint_min=20 / scenecut=40 / intra_refresh=0 / rc_lookahead=30 / rc=2pass / mbtree=1 / bitrate=2500 / ratetol=1.0 / qcomp=0.60 / qpmin=0 / qpmax=69 / qpstep=4 / cplxblur=20.0 / qblur=0.5 / ip_ratio=1.40 / aq=1:1.00
Default : Yes
Forced : No
Audio #2
ID : 2
Format : AC-3
Format/Info : Audio Coding 3
Mode extension : CM (complete main)
Format settings, Endianness : Big
Codec ID : A_AC3
Duration : 1h 17mn
Bit rate mode : Constant
Bit rate : 448 Kbps
Channel(s) : 6 channels
Channel positions : Front: L C R, Side: L R, LFE
Sampling rate : 48.0 KHz
Bit depth : 16 bits
Compression mode : Lossy
Stream size : 249 MiB (15%)
Default : Yes
Forced : No


Релиз от:



   Похожие торренты   Торрент   Размер 
В этой теме нет новых непрочитанных сообщений. Заботливые мишки: Добро пожаловать в Доброляндию / Care Bears: Welcome to Care-a-Lot [s01-7 из 26] (2012) DVDRip от New-Team | D

400 | 36

1.96 ГБ

В этой теме нет новых непрочитанных сообщений. Заботливые мишки: Добро пожаловать в Доброляндию / Care Bears: Welcome to Care-a-Lot [s01-5 из 26] (2012) DVDRip от New-Team | D

1844 | 79

1.4 ГБ

В этой теме нет новых непрочитанных сообщений. Заботливые медвежата / The Care Bears Movie [Часть 2] (1986) DVDRip

17 | 16

1.37 ГБ

В этой теме нет новых непрочитанных сообщений. Заботливые медвежата / The Care Bears Movie [Часть 1] (1985) DVDRip

12 | 11

1.37 ГБ

В этой теме нет новых непрочитанных сообщений. Путешествие к центру земли / A Journey to the Center of the Earth (1977) DVDRip от KinoRay & Sheikn

70 | 28

614.12 МБ

В этой теме нет новых непрочитанных сообщений. Приключения Бетси Бабблгам во Вкусляндии / Betsy Bubblegum's Journey Through Yummi-Land (2007) DVDRip от KinoRay & Sheikn | P2

63 | 32

684.76 МБ

В этой теме нет новых непрочитанных сообщений. Волшебное путешествие / The Magic Voyage / Die Abenteuer von Pico und Columbus (1992) DVDRip от KinoRay & Sheikn | А

78 | 33

1.08 ГБ




Вы не можете начинать темы
Вы не можете отвечать на сообщения
Вы не можете редактировать свои сообщения
Вы не можете удалять свои сообщения
Вы не можете добавлять вложения

Перейти:  
Для Мосгорсуда, Роскомнадзора и рекламодателей: mosgorsud-torrent[собачка]yandex.ru
 Вход
ppkBB3cker v.2 © 2008-2014 @ PPK
[ Time : 0.047s | 16 Queries | GZIP : Off ]

cron