img image001 image001 image001 image001 image001 image001 image001 image001 image001 image001 image001 image001 image001 image001 image001 image001

Planets Sun Sun Sun
Статистика раздачи
Автор: Nickolas3434 | Размер: 748.98 МБ | Добавлен: 31 май 2014
Раздают: 134    Качают: 23
Скачать торрент
Скачать торрент
Описание торрента

СообщениеДобавлено: 31 май 2014 

Информация о фильме
Название: Лего. Фильм
Оригинальное название: The Lego Movie
Год выхода: 2014
Жанр: мультфильм, фэнтези, комедия, приключения, семейный
Режиссер: Фил Лорд, Кристофер Миллер
В ролях: Крис Прэтт, Уилл Феррелл, Элизабет Бэнкс, Уилл Арнетт, Лиам Нисон, Морган Фриман, Элисон Бри, Дэвид Берроуз, Энтони Дэниелс, Чарли Дэй

Описание

Обычная лего-фигурка соглашается присоединиться к походу против злого лего-диктатора, планирующего склеить вместе всю вселенную…
Выпущено: Австралия, США, Дания / Warner Bros., Village Roadshow Pictures, LEGO
Продолжительность: 01:40:35
Озвучивание: Дублированное [iTunes]

Файл
Формат: AVI
Качество: HDRip исх.The.Lego.Movie.2014.1080p.BluRay.x264-BLOW [PublicHD]
Видео: 624x256 (2.44:1), 23.976 fps, XviD build 73 ~903 kbps avg, 0.24 bit/pixel
Аудио: 48 kHz, MPEG Layer 3, 2 ch, ~128.00 kbps avg
Размер: 745 MB

Скачать: Сэмпл

Рип Deadmauvlad

General
Complete name : LEGO.2014.HDRip.Deadmauvlad.745.MB.avi
Format : AVI
Format/Info : Audio Video Interleave
File size : 749 MiB
Duration : 1h 40mn
Overall bit rate : 1 041 Kbps
Movie name : LEGO.2014.HDRip.Deadmauvlad.745.MB
Director : Deadmauvlad
Genre : Genre_00+
Writing application : VirtualDubMod 1.5.10.3 | www.virtualdub-fr.org || (build 2550/release)
Copyright : Goldenshara
Comment : iTunes

Video
ID : 0
Format : MPEG-4 Visual
Format profile : Advanced Simple@L5
Format settings, BVOP : 1
Format settings, QPel : No
Format settings, GMC : No warppoints
Format settings, Matrix : Custom
Codec ID : XVID
Codec ID/Hint : XviD
Duration : 1h 40mn
Bit rate : 904 Kbps
Width : 624 pixels
Height : 256 pixels
Display aspect ratio : 2.40:1
Frame rate : 23.976 fps
Color space : YUV
Chroma subsampling : 4:2:0
Bit depth : 8 bits
Scan type : Progressive
Compression mode : Lossy
Bits/(Pixel*Frame) : 0.236
Stream size : 650 MiB (87%)
Writing library : XviD 73

Audio
ID : 1
Format : MPEG Audio
Format version : Version 1
Format profile : Layer 3
Codec ID : 55
Codec ID/Hint : MP3
Duration : 1h 40mn
Bit rate mode : Constant
Bit rate : 128 Kbps
Channel(s) : 2 channels
Sampling rate : 48.0 KHz
Compression mode : Lossy
Stream size : 92.1 MiB (12%)
Alignment : Aligned on interleaves
Interleave, duration : 42 ms (1.00 video frame)
Interleave, preload duration : 504 ms
Writing library : LAME3.99r
Encoding settings : -m s -V 4 -q 2 -lowpass 17 -b 128



   Похожие торренты   Торрент   Размер 
В этой теме нет новых непрочитанных сообщений. Лего. Фильм / The Lego Movie (2014) HDRip | iTunes

783 | 71

1.37 ГБ

В этой теме нет новых непрочитанных сообщений. Лего. Фильм / The Lego Movie (2014) HDRip | iTunes

66 | 25

700.55 МБ

В этой теме нет новых непрочитанных сообщений. Лего. Фильм / The Lego Movie (2014) HDRip-AVC от RG WazZzuP | iTunes

74 | 15

745.42 МБ

В этой теме нет новых непрочитанных сообщений. Лего. Фильм / The Lego Movie (2014) HDRip-AVC от ExKinoRay | iTunes

366 | 28

2.26 ГБ

В этой теме нет новых непрочитанных сообщений. Лего. Фильм / The Lego Movie (2014) HDRip от Scarabey | D | iTunes

177 | 18

743.04 МБ

В этой теме нет новых непрочитанных сообщений. Лего. Фильм / The Lego Movie (2014) HDRip от Scarabey | D | iTunes

431 | 70

1.46 ГБ

В этой теме нет новых непрочитанных сообщений. Лего. Фильм / The Lego Movie (2014) WEB-DL 720p | iTunes

2853 | 130

3.27 ГБ




Вы не можете начинать темы
Вы не можете отвечать на сообщения
Вы не можете редактировать свои сообщения
Вы не можете удалять свои сообщения
Вы не можете добавлять вложения

Перейти:  
 Вход
ppkBB3cker v.2 © 2008-2014 @ PPK
[ Time : 0.031s | 16 Queries | GZIP : Off ]

cron