img image001 image001 image001 image001 image001 image001 image001 image001 image001 image001 image001 image001 image001 image001 image001

Planets Sun Sun Sun
Статистика раздачи
Автор: Nickolas3434 | Размер: 1.16 ГБ | Добавлен: 31 май 2014
Раздают: 272    Качают: 81
Скачать торрент
Скачать торрент
Описание торрента

СообщениеДобавлено: 31 май 2014 

Информация о фильме
Название: Веселые рыбки / Гуппи и пузырьки
Оригинальное название: Bubble Guppies
Год выхода: 2013
Жанр: мультфильм
Режиссер: Mark Salisbury, Jeff Astolfo, Дэнис Морелла
В ролях: Brianna Gentilella, Кристофер Борджер, Селена Гонзалез, Тино Инсана, Скай Джексон, Имон Пирруччелло, Анджелина Уолер, Захари Гордан, Джелани Имани, Рейна Шаскан

О фильме:
Добро пожаловать в красочный подводный мир, где много водорослей и фантастических коралловых рифов! Любознательные малыши-рыбки каждый день открывают много нового и помогают маленьким телезрителям получить необходимые знания, чтобы подготовиться к походу в школу.
1. Готовимся к школе / Get Ready for School
2. Полицейский коп-курс / The Police Cop-etition
3. Слоновий хобо-данк / The Elephant Trunk-a-Dunk
4. Супер кубок по балету / The Super Ballet Bowl


Официальный сайт

Страна: США, Канада
Студия: Wildbrain, Nickelodeon Animation Studios
Продолжительность: ~ по 20 мин. серия
Перевод: Профессиональный (полное дублирование)

Файл
Кодек: XviD /MP3
Качество: SATRip
Видео: MPEG4, XviD, 640x480 (4:3), 25.000 fps, ~1500 Kbps (0.194 bit/pixel)
Звук: MP3, 48.0 KHz, 2 ch, 192 Kbps, CBR

General
Complete name : /Гуппи и Пузырики. Сезон 3/03.01 Готовься к школе.avi
Format : AVI
Format/Info : Audio Video Interleave
File size : 273 MiB
Duration : 22mn 27s
Overall bit rate : 1 698 Kbps

Video
ID : 0
Format : MPEG-4 Visual
Format profile : Simple@L3
Format settings, BVOP : No
Format settings, QPel : No
Format settings, GMC : No warppoints
Format settings, Matrix : Default (H.263)
Codec ID : XVID
Codec ID/Hint : XviD
Duration : 22mn 27s
Bit rate : 1 489 Kbps
Width : 640 pixels
Height : 480 pixels
Display aspect ratio : 4:3
Frame rate : 25.000 fps
Color space : YUV
Chroma subsampling : 4:2:0
Bit depth : 8 bits
Scan type : Progressive
Compression mode : Lossy
Bits/(Pixel*Frame) : 0.194
Stream size : 239 MiB (88%)
Writing library : XviD 1.2.1 (UTC 2008-12-04)

Audio
ID : 1
Format : MPEG Audio
Format version : Version 1
Format profile : Layer 3
Mode : Joint stereo
Mode extension : MS Stereo
Codec ID : 55
Codec ID/Hint : MP3
Duration : 22mn 27s
Bit rate mode : Constant
Bit rate : 192 Kbps
Channel(s) : 2 channels
Sampling rate : 48.0 KHz
Compression mode : Lossy
Stream size : 30.8 MiB (11%)
Alignment : Aligned on interleaves
Interleave, duration : 24 ms (0.60 video frame)
Writing library : LAME3.98
Раздача ведётся путём добавления новых серий; при каждом добавлении создаётся новый торрент. Чтобы начать докачку новой серии, пользователям необходимо сделать следующее:
(1) остановить скачивание,
(2) удалить старый торрент у себя из клиента (старые серии удалять не надо),
(3) скачать новый торрент и запустить его у себя в клиенте вместо старого, при этом указать клиенту путь в старую папку куда и должно происходить скачивание новых серий.

Ваш клиент при этом должен произвести хеширование (проверку) старой папки (если не производит сам - помогите ему сделать это), и будет докачивать только те серии которых у вас ещё нет. Старые серии при этом не удаляются, а продолжают раздаваться!

Eсли вы уже удалили старые серии, то предотвратить повторную закачку старых серий можно, отжав галочку в соответствующих местах при запуске нового торрента. По возможности, желательно не удалять старые серии как можно дольше чтобы релизёр не столько продолжал раздавать старые серии, а смог сконцентрироваться на новых.



   Похожие торренты   Торрент   Размер 
В этой теме нет новых непрочитанных сообщений. Веселые рыбки / Гуппи и пузырьки / Bubble Guppies [S01] (2011) SATRip

192 | 11

5.55 ГБ

В этой теме нет новых непрочитанных сообщений. Веселые истории из жизни [01-17] (2013) SATRip

2 | 2

4.52 ГБ

В этой теме нет новых непрочитанных сообщений. Argaman - Living in a Bubble (2013) MP3

0 | 1

304.06 МБ

В этой теме нет новых непрочитанных сообщений. Коллекция комиксов Bubble [01-12 из 13] (2012-2013) CBR

57 | 11

1.14 ГБ

В этой теме нет новых непрочитанных сообщений. Пузырьки (1975) VHSRip

3 | 3

701.06 МБ

В этой теме нет новых непрочитанных сообщений. Три веселые смены (1977) SATRip

88 | 5

2.04 ГБ

В этой теме нет новых непрочитанных сообщений. Весёлые звёзды (1954) SATRip от New-Team

53 | 4

1.46 ГБ




Вы не можете начинать темы
Вы не можете отвечать на сообщения
Вы не можете редактировать свои сообщения
Вы не можете удалять свои сообщения
Вы не можете добавлять вложения

Перейти:  
Для Мосгорсуда, Роскомнадзора и рекламодателей: mosgorsud-torrent[собачка]yandex.ru
 Вход
ppkBB3cker v.2 © 2008-2014 @ PPK
[ Time : 8.488s | 14 Queries | GZIP : Off ]

Торрент трекер RUTOR.IN, Не можете зайти на rutor.org? Какой новый адрес рутор? Какое зеркало рутор? Не работает rutor.org и зеркала? Тогда наш торрент специально для вас. Rutor.in неофициальное зеркало rutor. В случае если у Вас заблокирован rutor или вдруг Вы не можете на него зайти, то Вы без труда сможете скачать бесплатно и без рекламы последние новинки кино, игр, сериалов и прочего у нас, на Rutor.in. Не нужно использовать прокси, чтобы зайти на рутор, достаточно воспользоваться нашим ресурсом. Все новые фильмы, игры, сериалы, книги и музыка за 2013 и 2014 годы через торрент бесплатно. Скачивайте фильмы в хорошем качестве, игры для пк, xbox, playstation без регистрации. У нас вы найдете новые Зарубежные сериалы и Русские сериалы 2013, 2014, 2015 годов. Оставайтесь с нами, качайте любимые фильмы, игры, сериалы, книги и музыку.