img image001 image001 image001 image001 image001 image001 image001 image001 image001 image001 image001 image001 image001 image001 image001

Planets Sun Sun Sun
Статистика раздачи
Автор: Nickolas3434 | Размер: 2.78 ГБ | Добавлен: 04 июн 2014
Раздают: 262    Качают: 17
Скачать торрент
Скачать торрент
Описание торрента

СообщениеДобавлено: 04 июн 2014 

Информация о фильме
Оригинальное название: Добрыня Никитич и Змей Горыныч
Год выхода: 2006
Жанр: Мультфильм, фэнтези, комедия, приключения, полнометражный
Режиссер: Илья Максимов
В ролях: Валерий Соловьёв, Юрий Тарасов, Сергей Маковецкий, Андрей Толубеев, Екатерина Гороховская, Олег Куликович, Анатолий Петров, Наталья Данилова, Елена Шульман, Михаил Черняк

О фильме:
Эта увлекательная история, снятая в жанре сказки-комедии, продолжает цикл анимационных фильмов о былинных богатырях, начало которому положил мультипликационный суперблокбастер "Алеша Попович и Тугарин Змей".Не перевелись еще богатыри на земле русской!И один из них - доблестный воин Добрыня Никитич, состоящий на службе у Князя Киевского.И, казалось бы, кому, как не Добрыне Никитичу, должен поручить Князь непростую задачу - спасти Забаву из когтистых лап похитившего ее Змея Горыныча?Но не отпускает Князь Добрыню на поиски племянницы.Нелегко, ох нелегко придется Добрыне и его юному ученику Елисею.Тем более, что не знает Добрыня, и даже не догадывается, что Князь сам поставлен в безвыходное положение, и что он вовсе не заинтересован в возвращении племянницы.Тяжкое испытание предстоит Добрыне - познать горечь предательства.Но не суждено будет сбыться злодейским планам - и даже коварная Баба Яга окажется бессильна перед прямым и честным Добрыней и другом его Елисеем!



Страна: Россия, Анимационная студия Мельница
Продолжительность: 01:08:08
Язык: Русский
Дата релиза: 02.06.2014

Файл
Кодек: H.264
Качество: BDRip 1080p
Видео: MPEG-4 AVC, 5401 Кбит/с, 1920x1032
Звук: AC3, 6 ch, 448 Кбит/с

Общее
Уникальный идентификатор : 204438514432432591541623035557333137020 (0x99CD6CF8EA52947B97CC28F736FB767C)
Полное имя : D:6Dobrunya.Nikitich.I.Zmey.Gorunuch.2006.x264.BDRip.(1080p).ExKinoRay.mkv
Формат : Matroska
Размер файла : 2,78 Гбайт
Продолжительность : 1 ч. 8 м.
Общий поток : 5850 Кбит/сек
Название фильма : Dobrunya.Nikitich.I.Zmey.Gorunuch.2006.x264.BDRip.(1080p).ExKinoRay
Дата кодирования : UTC 2014-06-02 18:23:17
Программа кодирования : mkvmerge v4.0.0 ('The Stars were mine') сборка от Jun 6 2010 16:18:42
Библиотека кодирования : libebml v1.0.0 + libmatroska v1.0.0

Видео
Идентификатор : 1
Формат : AVC
Формат/Информация : Advanced Video Codec
Профиль формата : High@L4.1
Параметр CABAC формата : Да
Параметр ReFrames формата : 4 кадра
Идентификатор кодека : V_MPEG4/ISO/AVC
Продолжительность : 1 ч. 8 м.
Битрейт : 5401 Кбит/сек
Ширина : 1920 пикс.
Высота : 1032 пикс.
Соотношение сторон : 1,860
Частота кадров : 23,976 кадр/сек
Цветовое пространство : YUV
Подвыборка цветности : 4:2:0
Битовая глубина : 8 бит
Тип развёртки : Прогрессивная
Бит/(Пиксели*Кадры) : 0.114
Размер потока : 2,52 Гбайт (90%)
Заголовок : Rip by Enigma-Vladislav71
Библиотека кодирования : x264 core 125 r2208 d9d2288
Настройки программы : cabac=1 / ref=4 / deblock=1:-3:-3 / analyse=0x3:0x133 / me=umh / subme=11 / psy=1 / psy_rd=1.00:0.00 / mixed_ref=1 / me_range=32 / chroma_me=1 / trellis=2 / 8x8dct=1 / cqm=0 / deadzone=21,11 / fast_pskip=0 / chroma_qp_offset=-2 / threads=3 / lookahead_threads=1 / sliced_threads=0 / nr=0 / decimate=0 / interlaced=0 / bluray_compat=0 / constrained_intra=0 / bframes=8 / b_pyramid=2 / b_adapt=2 / b_bias=0 / direct=3 / weightb=1 / open_gop=0 / weightp=2 / keyint=240 / keyint_min=23 / scenecut=40 / intra_refresh=0 / rc=2pass / mbtree=0 / bitrate=5401 / ratetol=1.0 / qcomp=0.60 / qpmin=10 / qpmax=51 / qpstep=4 / cplxblur=20.0 / qblur=0.5 / ip_ratio=1.40 / pb_ratio=1.30 / aq=1:1.00
Язык : English

Аудио
Идентификатор : 2
Формат : AC-3
Формат/Информация : Audio Coding 3
Расширение режима : CM (complete main)
Идентификатор кодека : A_AC3
Продолжительность : 1 ч. 8 м.
Вид битрейта : Постоянный
Битрейт : 448 Кбит/сек
Каналы : 6 каналов
Расположение каналов : Front: L C R, Side: L R, LFE
Частота : 48,0 КГц
Битовая глубина : 16 бит
Метод сжатия : С потерями
Размер потока : 218 Мбайт (8%)
Язык : Russian


Релиз от:

Авторы релиза:



   Похожие торренты   Торрент   Размер 
В этой теме нет новых непрочитанных сообщений. Добрыня Никитич и Змей Горыныч (2006) BDRip 720p от ExKinoRay

36 | 7

1.05 ГБ

В этой теме нет новых непрочитанных сообщений. Добрыня Никитич и Змей Горыныч (2006) BDRip от RP4 CHG

22 | 2

701.83 МБ

В этой теме нет новых непрочитанных сообщений. Добрыня Никитич и Змей Горыныч (2006) BDRip от VIDEODB

28 | 22

1.2 ГБ

В этой теме нет новых непрочитанных сообщений. Добрыня Никитич и Змей Горыныч (2006) BDRip-AVC | iPad

8 | 2

908.94 МБ

В этой теме нет новых непрочитанных сообщений. Добрыня Никитич и Змей Горыныч (2006) BDRip от alldown | КПК

91 | 5

306.84 МБ

В этой теме нет новых непрочитанных сообщений. Добрыня Никитич и Змей Горыныч (2006) BDRip от HQCLUB

126 | 10

1.09 ГБ

В этой теме нет новых непрочитанных сообщений. Добрыня Никитич и Змей Горыныч (2006) BDRip от HQ-ViDEO | PROPER

786 | 47

1.45 ГБ




Вы не можете начинать темы
Вы не можете отвечать на сообщения
Вы не можете редактировать свои сообщения
Вы не можете удалять свои сообщения
Вы не можете добавлять вложения

Перейти:  
Для Мосгорсуда, Роскомнадзора и рекламодателей: mosgorsud-torrent[собачка]yandex.ru
 Вход
ppkBB3cker v.2 © 2008-2014 @ PPK
[ Time : 0.035s | 15 Queries | GZIP : Off ]

Торрент трекер RUTOR.IN, Не можете зайти на rutor.org? Какой новый адрес рутор? Какое зеркало рутор? Не работает rutor.org и зеркала? Тогда наш торрент специально для вас. Rutor.in неофициальное зеркало rutor. В случае если у Вас заблокирован rutor или вдруг Вы не можете на него зайти, то Вы без труда сможете скачать бесплатно и без рекламы последние новинки кино, игр, сериалов и прочего у нас, на Rutor.in. Не нужно использовать прокси, чтобы зайти на рутор, достаточно воспользоваться нашим ресурсом. Все новые фильмы, игры, сериалы, книги и музыка за 2013 и 2014 годы через торрент бесплатно. Скачивайте фильмы в хорошем качестве, игры для пк, xbox, playstation без регистрации. У нас вы найдете новые Зарубежные сериалы и Русские сериалы 2013, 2014, 2015 годов. Оставайтесь с нами, качайте любимые фильмы, игры, сериалы, книги и музыку.