img image001 image001 image001 image001 image001 image001 image001 image001 image001 image001 image001 image001 image001 image001 image001

Planets Sun Sun Sun
Статистика раздачи
Автор: Nickolas3434 | Размер: 10.7 ГБ | Добавлен: 04 июн 2014
Раздают: 78    Качают: 46
Скачать торрент
Скачать торрент
Описание торрента

СообщениеДобавлено: 04 июн 2014 

Информация о фильме
Название: Огги и тараканы
Оригинальное название: Oggy et les cafards / Oggy and the Cockroaches
Год выхода: 1998
Жанр: мультфильм, комедия, семейный
Режиссер: Оливье Жан Мари
В ролях: Грег Иглз, Мэтт Хилл, Рик Джонс, Питер Келамис, Дон Майкл Пол, Клер Райли, Тони Сэмпсон, Джон Стокер, Тара Стронг, Сэм Винсент

О фильме:
Толстый добродушный обыватель, кот Огги хочет только одного: чтобы никто не мешал ему со вкусом наслаждаться спокойной и размеренной жизнью, с ее невинными радостями — вкусной едой, телевизором, мягким пуфом, на котором так уютно спится…

Но бедного кота одолевают несносные соседи: три вредных таракана (Джой, Марки и Ди-Ди) постоянно отравляют ему жизнь жестокими шутками.

Страна: Франция, Канада
Студия: Gaumont Film Company, Xilam, TF1
Продолжительность: ~00:08:00 серия
Перевод: Не требуется

Файл
Кодек: x264 / AC3
Качество: DVDRip-AVC
Видео: AVC, 720x544 (4:3), 25.000 fps, 1 108 Kbps (0.113 bit/pixel)
Звук: AC-3, 48.0 KHz, 2 ch, 128 Kbps, CBR

General
Unique ID : 195397323390465908894325479598183611397 (0x930027D68563A206B8D8D5D82716FC05)
Complete name : /Огги и Какурачи - DVDRip-AVC/001 - Bitter Chocolate.mkv
Format : Matroska
Format version : Version 2
File size : 65.8 MiB
Duration : 7mn 26s
Overall bit rate : 1 237 Kbps
Encoded date : UTC 2010-04-04 07:38:35
Writing application : mkvmerge v3.2.0 ('Beginnings') built on Feb 12 2010 16:46:17
Writing library : libebml v0.7.9 + libmatroska v0.8.1

Video
ID : 1
Format : AVC
Format/Info : Advanced Video Codec
Format profile : High@L3.0
Format settings, CABAC : Yes
Format settings, ReFrames : 3 frames
Codec ID : V_MPEG4/ISO/AVC
Duration : 7mn 26s
Bit rate : 1 108 Kbps
Width : 720 pixels
Height : 544 pixels
Display aspect ratio : 4:3
Frame rate : 25.000 fps
Color space : YUV
Chroma subsampling : 4:2:0
Bit depth : 8 bits
Scan type : Progressive
Bits/(Pixel*Frame) : 0.113
Stream size : 57.7 MiB (88%)
Writing library : x264 core 80 r1376M 3feaec2
Encoding settings : cabac=1 / ref=3 / deblock=1:0:0 / analyse=0x3:0x113 / me=hex / subme=7 / psy=1 / psy_rd=1.0:0.0 / mixed_ref=1 / me_range=16 / chroma_me=1 / trellis=1 / 8x8dct=1 / cqm=0 / deadzone=21,11 / fast_pskip=1 / chroma_qp_offset=-2 / threads=3 / sliced_threads=0 / nr=0 / decimate=1 / mbaff=0 / constrained_intra=0 / bframes=3 / b_pyramid=0 / b_adapt=1 / b_bias=0 / direct=1 / wpredb=1 / wpredp=2 / keyint=250 / keyint_min=25 / scenecut=40 / rc_lookahead=40 / rc=2pass / mbtree=1 / bitrate=1108 / ratetol=1.0 / qcomp=0.60 / qpmin=10 / qpmax=51 / qpstep=4 / cplxblur=20.0 / qblur=0.5 / ip_ratio=1.40 / aq=1:1.00
Language : English
Default : No
Forced : No

Audio
ID : 2
Format : AC-3
Format/Info : Audio Coding 3
Mode extension : CM (complete main)
Format settings, Endianness : Big
Codec ID : A_AC3
Duration : 7mn 26s
Bit rate mode : Constant
Bit rate : 128 Kbps
Channel(s) : 2 channels
Channel positions : Front: L R
Sampling rate : 48.0 KHz
Bit depth : 16 bits
Compression mode : Lossy
Stream size : 6.81 MiB (10%)
Default : Yes
Forced : No



   Похожие торренты   Торрент   Размер 
В этой теме нет новых непрочитанных сообщений. Огги и Тараканы / Oggy and the Cockroaches [s01-s08] (1999-2006) DVDRip

64 | 34

9.78 ГБ

В этой теме нет новых непрочитанных сообщений. Огги и тараканы / Oggy et les cafards [01-03x01-195] (1998-2008) 4xDVD5 + 8xDVD9 от New-Team | Лицензия

7 | 17

69.23 ГБ

В этой теме нет новых непрочитанных сообщений. Огги и Тараканы (78 серий) / Oggy and the Cockroaches (Season 1) (1999) DVDRip

24 | 5

5.46 ГБ

В этой теме нет новых непрочитанных сообщений. Огги и Тараканы (78 серий) / Oggy and the Cockroaches (Season 2) (2001) TVRip

36 | 12

4.94 ГБ

В этой теме нет новых непрочитанных сообщений. Огги и тараканы / Невероятные приключения кота / Oggy et les cafards (2013) HDRip от Deadmauvlad

219 | 13

746.12 МБ

В этой теме нет новых непрочитанных сообщений. Невероятные приключения кота / Oggy et les cafards (2013) DVDRip

95 | 7

704.31 МБ

В этой теме нет новых непрочитанных сообщений. Невероятные приключения кота / Oggy et les cafards (2013) HDRip

156 | 5

1.37 ГБ




Вы не можете начинать темы
Вы не можете отвечать на сообщения
Вы не можете редактировать свои сообщения
Вы не можете удалять свои сообщения
Вы не можете добавлять вложения

Перейти:  
Для Мосгорсуда, Роскомнадзора и рекламодателей: mosgorsud-torrent[собачка]yandex.ru
 Вход
ppkBB3cker v.2 © 2008-2014 @ PPK
[ Time : 0.024s | 15 Queries | GZIP : On ]

Торрент трекер RUTOR.IN, Не можете зайти на rutor.org? Какой новый адрес рутор? Какое зеркало рутор? Не работает rutor.org и зеркала? Тогда наш торрент специально для вас. Rutor.in неофициальное зеркало rutor. В случае если у Вас заблокирован rutor или вдруг Вы не можете на него зайти, то Вы без труда сможете скачать бесплатно и без рекламы последние новинки кино, игр, сериалов и прочего у нас, на Rutor.in. Не нужно использовать прокси, чтобы зайти на рутор, достаточно воспользоваться нашим ресурсом. Все новые фильмы, игры, сериалы, книги и музыка за 2013 и 2014 годы через торрент бесплатно. Скачивайте фильмы в хорошем качестве, игры для пк, xbox, playstation без регистрации. У нас вы найдете новые Зарубежные сериалы и Русские сериалы 2013, 2014, 2015 годов. Оставайтесь с нами, качайте любимые фильмы, игры, сериалы, книги и музыку.