img image001 image001 image001 image001 image001 image001 image001 image001 image001 image001 image001 image001 image001 image001 image001

Planets Sun Sun Sun
Статистика раздачи
Автор: Nickolas3434 | Размер: 1.46 ГБ | Добавлен: 04 июн 2014
Раздают: 412    Качают: 46
Скачать торрент
Скачать торрент
Описание торрента

СообщениеДобавлено: 04 июн 2014 

Информация о фильме
Название: Финес и Ферб: Покорение второго измерения
Оригинальное название: Phineas and Ferb the Movie: Across the 2nd Dimension
Год выхода: 2011
Жанр: мультфильм, фэнтези, комедия, приключения, семейный
Режиссер: Дэн Повенмайр, Роберт Хьюз / Dan Povenmire, Robert Hughes
В ролях: Винсент Мартелла
Эшли Тисдейл,Томас Сэнгстер,Кэролайн Ри,Ричард О’Брайэн,Дэн Повенмайр,Джефф «Свомпи» Марш,Элисон Стоунер,Молик Панчоли,Бобби Гейлор

Роли дублировали:

Мария Павлова (Candace Flynn, Candace-2),Дмитрий Череватенко (... Ferb Fletcher,... Phineas Flynn, Phineas-2,),Валерия Забегаева,Антон Батырев,Максим Глебов
Описание

Когда Финес, Ферб и Перри вошли вслед за доктором Фуфелшмертцем в созданный им «измерениенатор», они очутились в параллельной Вселенной. Здесь двойник доктора Фуфела, настоящий злодей, управляет Триштатьем с помощью армии роботов со стальными кулаками.
Чтобы спасти друзей от неминуемой гибели, Перри приходится пойти на величайшую жертву и раскрыть свой секретный псевдоним — «агент Пи». Финес и Ферб спасаются бегством и, встретив своих двойников из второго измерения, начинают операцию по освобождению Перри. Великая битва с участием наших героев начинается с защиты своего дома от злодея доктора Фуфела — и его приспешника Уткоборга!
Сможет ли злобный Фуфел завоевать господство в обоих мирах? Сможет ли Кендэс приструнить своих братьев? Узнай все сам, наблюдая за увлекательными приключениями наших друзей — они настолько невероятны, что выходят за пределы времени и пространства!
Выпущено: США,Walt Disney Television Animation
Продолжительность: 01:18:08
Озвучивание: Профессиональный (дублированный) [Disney] [Все песни переведены на русский язык кроме последней в конце фильма !]

Файл
Формат: AVI
Качество: HDTVRip исх.Phineas.and.Ferb.The.Movie.Across.the.2nd.Dimension.2011.720p.HDTV-SBRO
Видео: 720x400 (1.80:1), 23.976 fps, XviD build 73 ~2084 kbps avg, 0.30 bit/pixel
Audio #1: 48 kHz, AC3 Dolby Digital, 2/0 (L,R) ch, ~192.00 kbps avg [Disney]
Audio #2: 48 kHz, AC3 Dolby Digital, 3/2 (L,C,R,l,r) + LFE ch, ~384.00 [Оригинал] kbps avg
Субтитры Русские,Английские
Размер: 1495 MB

Скачать: Сэмпл

Рип Deadmauvlad


Код:
Общее
Полное имя                               : D:Рипы выкладка [Deadmauvlad]Рипы готовыеPhineas.and.Ferb.The.Movie.Across.the.2nd.Dimension.2011.HDTVRip.1.46.GB.Rus.Eng.DeadmauvladPhineas.and.Ferb.The.Movie.Across.the.2nd.Dimension.2011.HDTVRip.1.46.GB.Rus.Eng.Deadmauvlad.avi
Формат                                   : AVI
Формат/Информация                        : Audio Video Interleave
Размер файла                             : 1,46 Гбайт
Продолжительность                        : 1 ч. 18 м.
Общий поток                              : 2675 Кбит/сек
Название фильма                          : Phineas.and.Ferb.The.Movie.Across.the.2nd.Dimension.2011.HDTVRip.Rus.Eng.Deadmauvlad
Режиссёр                                 : Deadmauvlad
Жанр                                     : Genre_00+
Программа кодирования                    : VirtualDubMod 1.5.10.3 | www.virtualdub-fr.org || (build 2550/release)
Формат оригинала/Имя                     : Мультфильм
Правообладатель                          : Goldenshara

Видео
Идентификатор                            : 0
Формат                                   : MPEG-4 Visual
Профиль формата                          : Advanced Simple@L5
Параметр BVOP формата                    : 1
Параметр QPel формата                    : Нет
Параметр GMC формата                     : Без точки перехода
Параметр матрицы формата                 : Выборочная
Идентификатор кодека                     : XVID
Идентификатор кодека/Подсказка           : XviD
Продолжительность                        : 1 ч. 18 м.
Битрейт                                  : 2085 Кбит/сек
Ширина                                   : 720 пикселей
Высота                                   : 400 пикселей
Соотношение сторон                       : 16:9
Частота кадров                           : 23,976 кадра/сек
Цветовое пространство                    : YUV
Субдискретизация насыщенности            : 4:2:0
Битовая глубина                          : 8 бит
Тип развёртки                            : Прогрессивная
Метод сжатия                             : С потерями
Бит/(Пиксели*Кадры)                      : 0.302
Размер потока                            : 1,14 Гбайт (78%)
Библиотека кодирования                   : XviD 73

Аудио #1
Идентификатор                            : 1
Формат                                   : AC-3
Формат/Информация                        : Audio Coding 3
Расширение режима                        : CM (complete main)
Параметр Endianness формата              : Big
Идентификатор кодека                     : 2000
Продолжительность                        : 1 ч. 18 м.
Вид битрейта                             : Постоянный
Битрейт                                  : 192 Кбит/сек
Каналы                                   : 2 канала
Расположение каналов                     : Front: L R
Частота                                  : 48,0 КГц
Битовая глубина                          : 16 бит
Метод сжатия                             : С потерями
Размер потока                            : 107 Мбайт (7%)
Выравнивание                             : Разделение по промежуткам
Продолжительность промежутка             : 42  мс. (1,00 видеокадр)
Время предзагрузки промежутка            : 500  мс.

Аудио #2
Идентификатор                            : 2
Формат                                   : AC-3
Формат/Информация                        : Audio Coding 3
Расширение режима                        : CM (complete main)
Параметр Endianness формата              : Big
Идентификатор кодека                     : 2000
Продолжительность                        : 1 ч. 18 м.
Вид битрейта                             : Постоянный
Битрейт                                  : 384 Кбит/сек
Каналы                                   : 6 каналов
Расположение каналов                     : Front: L C R, Side: L R, LFE
Частота                                  : 48,0 КГц
Битовая глубина                          : 16 бит
Метод сжатия                             : С потерями
Размер потока                            : 215 Мбайт (14%)
Выравнивание                             : Разделение по промежуткам
Продолжительность промежутка             : 42  мс. (1,00 видеокадр)
Время предзагрузки промежутка            : 500  мс.




   Похожие торренты   Торрент   Размер 
В этой теме нет новых непрочитанных сообщений. Финес и Ферб / Phineas and Ferb [S02] (2009-2011) SATRip by JIexa

21 | 3

6.49 ГБ

В этой теме нет новых непрочитанных сообщений. Финес и Ферб / Phineas and Ferb [S02] (2009-2011) WEBDLRip 720p

15 | 4

5.78 ГБ

В этой теме нет новых непрочитанных сообщений. Финес и Ферб / Phineas and Ferb [S01] (2007) WEB-DL 720p

51 | 3

3.82 ГБ

В этой теме нет новых непрочитанных сообщений. Финес и Ферб / Phineas and Ferb [S01-04, 01-101] (2007-2013) WEB-DLRip от Fartuna

39 | 51

30.42 ГБ

В этой теме нет новых непрочитанных сообщений. Финес и Ферб / Phineas and Ferb [S01-04] (2007-2012) WEB-DL 720p l 1080p l D

87 | 65

31.24 ГБ

В этой теме нет новых непрочитанных сообщений. Финес и Ферб / Phineas and Ferb [S01] (2007-2008) SATRip by JIexa

41 | 4

6.91 ГБ

В этой теме нет новых непрочитанных сообщений. Финес и Ферб / Phineas and Ferb [S01-04] (2008-2014) 5xDVD9 от New-Team | D | Лицензия

74 | 95

31.77 ГБ




Вы не можете начинать темы
Вы не можете отвечать на сообщения
Вы не можете редактировать свои сообщения
Вы не можете удалять свои сообщения
Вы не можете добавлять вложения

Перейти:  
Для Мосгорсуда, Роскомнадзора и рекламодателей: mosgorsud-torrent[собачка]yandex.ru
 Вход
ppkBB3cker v.2 © 2008-2014 @ PPK
[ Time : 0.335s | 15 Queries | GZIP : On ]

Торрент трекер RUTOR.IN, Не можете зайти на rutor.org? Какой новый адрес рутор? Какое зеркало рутор? Не работает rutor.org и зеркала? Тогда наш торрент специально для вас. Rutor.in неофициальное зеркало rutor. В случае если у Вас заблокирован rutor или вдруг Вы не можете на него зайти, то Вы без труда сможете скачать бесплатно и без рекламы последние новинки кино, игр, сериалов и прочего у нас, на Rutor.in. Не нужно использовать прокси, чтобы зайти на рутор, достаточно воспользоваться нашим ресурсом. Все новые фильмы, игры, сериалы, книги и музыка за 2013 и 2014 годы через торрент бесплатно. Скачивайте фильмы в хорошем качестве, игры для пк, xbox, playstation без регистрации. У нас вы найдете новые Зарубежные сериалы и Русские сериалы 2013, 2014, 2015 годов. Оставайтесь с нами, качайте любимые фильмы, игры, сериалы, книги и музыку.