img image001 image001 image001 image001 image001 image001 image001 image001 image001 image001 image001 image001 image001 image001 image001

Planets Sun Sun Sun
Статистика раздачи
Автор: Nickolas3434 | Размер: 7.49 ГБ | Добавлен: 12 июн 2014
Раздают: 15    Качают: 36
Скачать торрент
Скачать торрент
Описание торрента

СообщениеДобавлено: 12 июн 2014 

Информация о фильме
Название: Мук
Оригинальное название: Mouk
Год выхода: 2011
Жанр: Мультсериал, приключения, семейный, детский
Режиссер: Франсуа Нарбо / François Narboux, Марк Бутаван / Marc Boutavant

О фильме:
Удивительные путешествия медвежонка Мука и кошки по кличке Чавапа. Друзья Мук и Чавапа много путешествуют по свету на своих велосипедах. Токио и Нью-Йорк, Австралия и Мадагаскар — в дальних странах приятели открывают для себя мир и знакомятся с его обитателями. А в пути их ждут интересные приключения и новые друзья!

01. Талисман / Lucky Charm (Morocco)
02. Археологи в пустыне / The Desert Archaeologists (Algeria)
03. Срочная доставка / Urgent Delivery (Crete)
04. Каменные гиганты / Stone Giants (Canada)
05. Подарок на день рождения / The Birthday Present (Japan)
06. Рука помощи / A Helping Hand (Senegal)
07. Время черепах / Turtle Time (Madagascar)
08. Ой, мы пропустили автобус / Whoops, we missed the Bus (Peru)
09. Большая переправа / The Great Crossing (Venezuela)
10. Маленький и красивый / Small is Beautiful (Japan)
11. Сбежавшая палка / The Stick that walked away (Venezuela)
12. На рисовых полях / In the Paddy Fields (Vietnam)
13. Нет связи / Out of Contact (India)
14. Холи / Holi (India)
15. Гол / Goal (Brasil)
16. В поисках Йети / In Search of the Yeti (China)
17. Совсем как новый! / Good as New ! (Senegal)
18. Велогонка / Bicycle Race (Crete)
19. Да здравствует пиньята / Viva la Pinata ! (Mexico)
20. Розовый дельфин / Pink Dolphin (Venezuela)
21. В поисках Карибу / In Search of the Caribou (Canada)
22. Не суди о кактусе по колючкам / Don't judge a Cactus by its Prickles (USA)
23. Самый нарядный слон / The Best Dressed ELephant (India)
24. По звёздам / Star Struck (Australia)
25. Ой, ковбой / Yee Ha Cowboy (Argentina)
26. Индийская ваза / The Indian Vase (India)
27. Поиски сокровищ / Paper Chase (Japan)
28. Над деревьями / Above the Trees (Venezuela)
29. Кафе "Баобаб" / Baobab Café (Madagascar)
30. Исскуство доения яков / The Art of Milking a Yak (China)
31. Какое объедение кленовый сироп / Yummy, Maple Syrup ! (Canada)
32. А Нилу легче / Nile and easy (Egypt)
33. Рок-группа «Австралийцы» / Wallabie's Rock (Australia)
34. Гигантские рисунки / Nazca (Peru)
35. Ловцы облаков / The Cloud Catcher (Chile)
36. День сюрпризов / A Message for You (USA)
37. Забота о мальках / Little Fish Grow Up
38. Сбежавший робот / Runaway Robot
39. Соловьи / Birdsong (China)
40. Следы динозавра / Dinosaur Trail
41. Бамбуковые плантации / The Bamboo Plantation
42. Ханами / Hanami
43. Падающие звёзды / Shooting Stars
44. Клип группы «Австралийцы» / Wallabies' Clip
45. Кукловоды / Puppet Masters
46. Босса-нова /Bossa Nova
47. Рикша /Rickshaw
48. Рождество летом /Christmas in the Sun
51. Северное сияние / Aurora Borealis

Бонус
Абрикосовое дерево, Медитация
Дзен
Фонтан, Инструкция
Индийский фильм, Рисунки на тарелках
Каное, Проверь ботинки
Коньки, Лягушка
Палочки, Фотография
Светлячок, Прятки

Официальный сайт

Страна: Франция
Студия: Millimages, France 5
Продолжительность: ~00:11:00 серия
Перевод: Профессиональный (многоголосый закадровый)

Файл
Кодек: XviD / AC3
Качество: SATRip
Видео: MPEG4, XviD, 720x416 (16:9), 25.000 fps, 1 700 Kbps (0.227 bit/pixel)
Звук: AC-3, 48.0 KHz, 2 ch, 192 Kbps, CBR

General
Complete name : /Muk.(1.sezon).2011.XviD.SATRip/01. Talisman.avi
Format : AVI
Format/Info : Audio Video Interleave
File size : 152 MiB
Duration : 11mn 8s
Overall bit rate : 1 902 Kbps
Movie name : 01. Lucky Charm
Director : SATRip by Thunder
Writing application : VirtualDubMod 1.5.10.3 | www.virtualdub-fr.org || (build 2550/release)

Video
ID : 0
Format : MPEG-4 Visual
Format profile : Advanced Simple@L5
Format settings, BVOP : 2
Format settings, QPel : No
Format settings, GMC : No warppoints
Format settings, Matrix : Default (H.263)
Codec ID : XVID
Codec ID/Hint : XviD
Duration : 11mn 8s
Bit rate : 1 700 Kbps
Width : 720 pixels
Height : 416 pixels
Display aspect ratio : 1.731
Frame rate : 25.000 fps
Color space : YUV
Chroma subsampling : 4:2:0
Bit depth : 8 bits
Scan type : Progressive
Compression mode : Lossy
Bits/(Pixel*Frame) : 0.227
Stream size : 136 MiB (89%)
Writing library : XviD 1.2.1 (UTC 2008-12-04)

Audio
ID : 1
Format : AC-3
Format/Info : Audio Coding 3
Mode extension : CM (complete main)
Format settings, Endianness : Big
Codec ID : 2000
Duration : 11mn 8s
Bit rate mode : Constant
Bit rate : 192 Kbps
Channel(s) : 2 channels
Channel positions : Front: L R
Sampling rate : 48.0 KHz
Bit depth : 16 bits
Compression mode : Lossy
Stream size : 15.3 MiB (10%)
Alignment : Split accross interleaves
Interleave, duration : 40 ms (1.00 video frame)
Interleave, preload duration : 500 ms



   Похожие торренты   Торрент   Размер 
В этой теме нет новых непрочитанных сообщений. Мук / Mouk [01x1-48, 51-55 из 92] (2011) SATRip

32 | 18

8.29 ГБ

В этой теме нет новых непрочитанных сообщений. Мук / Mouk [01x01-57, 59-62 из 92] (2011) SATRip

30 | 9

9.34 ГБ

В этой теме нет новых непрочитанных сообщений. Мук / Mouk [01x01-47] (2011) WEBDL 1080p

17 | 22

9.55 ГБ

В этой теме нет новых непрочитанных сообщений. Мук / Mouk [01x01-54] (2011) WEBDL 1080p

18 | 4

11.12 ГБ

В этой теме нет новых непрочитанных сообщений. Вера / Vera [01x1-2 из 4] (2011) HDTVRip 720p от HDClub

46 | 15

4.61 ГБ

В этой теме нет новых непрочитанных сообщений. Отчаянные бойцы Бакуган / Bakugan Battle Brawlers [01x1-26] (2007) SATRip

35 | 9

8.41 ГБ

В этой теме нет новых непрочитанных сообщений. Купидон / Cupid [01x1-7] (2009) HDRip

2 | 2

2.68 ГБ




Вы не можете начинать темы
Вы не можете отвечать на сообщения
Вы не можете редактировать свои сообщения
Вы не можете удалять свои сообщения
Вы не можете добавлять вложения

Перейти:  
Для Мосгорсуда, Роскомнадзора и рекламодателей: mosgorsud-torrent[собачка]yandex.ru
 Вход
ppkBB3cker v.2 © 2008-2014 @ PPK
[ Time : 0.102s | 14 Queries | GZIP : Off ]

Торрент трекер RUTOR.IN, Не можете зайти на rutor.org? Какой новый адрес рутор? Какое зеркало рутор? Не работает rutor.org и зеркала? Тогда наш торрент специально для вас. Rutor.in неофициальное зеркало rutor. В случае если у Вас заблокирован rutor или вдруг Вы не можете на него зайти, то Вы без труда сможете скачать бесплатно и без рекламы последние новинки кино, игр, сериалов и прочего у нас, на Rutor.in. Не нужно использовать прокси, чтобы зайти на рутор, достаточно воспользоваться нашим ресурсом. Все новые фильмы, игры, сериалы, книги и музыка за 2013 и 2014 годы через торрент бесплатно. Скачивайте фильмы в хорошем качестве, игры для пк, xbox, playstation без регистрации. У нас вы найдете новые Зарубежные сериалы и Русские сериалы 2013, 2014, 2015 годов. Оставайтесь с нами, качайте любимые фильмы, игры, сериалы, книги и музыку.