img image001 image001 image001 image001 image001 image001 image001 image001 image001 image001 image001 image001 image001 image001 image001

Planets Sun Sun Sun
Статистика раздачи
Автор: Nickolas3434 | Размер: 1.32 ГБ | Добавлен: 11 июн 2014
Раздают: 233    Качают: 34
Скачать торрент
Скачать торрент
Описание торрента

СообщениеДобавлено: 11 июн 2014 

Информация о фильме
Название: Письмо Дракуле
Оригинальное название: Dear Dracula
Год выхода: 2012
Жанр: мультфильм, семейный
Режиссер: Чад Ван Де Кер
В ролях: Рэй Лиотта, Эмилио Эстевес, Эриель Винтер, Исаак Уилсон, Трой Бэйкер, Нэйтан Гэмбл…

О фильме:
Мальчик Сэм обожает рассказывать страшные истории и знает толк в розыгрышах. В канун праздника Хэллоуин он пишет письмо своему кумиру, графу Дракуле, и приглашает его в гости. Сэм мечтает от души повеселиться в компании вампира и до смерти напугать всех своих соседей. Наконец, в ночь празднования таинственный граф появляется на пороге дома мальчишки. Восторгу Сэма нет предела! Но вдруг выясняется, что самый опасный вампир всех времен не в состоянии внушить страх даже трехлетней девчонке!


Страна: США
Студия: Kickstart Productions
Продолжительность: 00:43:15
Перевод: Дублированный

Файл
Кодек: h.264 (MKV)
Качество: HDTV 720p
Видео: AVC, 1280 x 720, ~4093 kbps
Звук: AC-3, 2 ch, 192 kbps
Субтитры: нет

Семпл

Общее
Уникальный идентификатор : 168348648403719580577546155723716462494 (0x7EA6C532C2870C1E037BA147C20E879E)
Полное имя : F:Письмо Дракуле Dear Dracula (2012)Письмо Дракуле Dear Dracula (2012) HDTV 720p.mkv
Формат : Matroska
Версия формата : Version 2
Размер файла : 1,32 Гбайт
Продолжительность : 43 м.
Режим общего битрейта : Переменный
Общий поток : 4372 Кбит/сек
Программа кодирования : Lavf51.12.1
Библиотека кодирования : Lavf51.12.1

Видео
Идентификатор : 1
Формат : AVC
Формат/Информация : Advanced Video Codec
Профиль формата : Baseline@L3.1
Параметр CABAC формата : Нет
Параметр ReFrames формата : 1 кадр
Параметр GOP формата : M=1, N=12
Идентификатор кодека : V_MPEG4/ISO/AVC
Продолжительность : 43 м.
Вид битрейта : Переменный
Битрейт : 4093 Кбит/сек
Максимальный битрейт : 6000 Кбит/сек
Ширина : 1280 пикселей
Высота : 720 пикселей
Соотношение сторон : 16:9
Режим частоты кадров : Постоянный
Частота кадров : 25,000 кадров/сек
Частота кадров в оригинале : 24,000 кадра/сек
Цветовое пространство : YUV
Субдискретизация насыщенности : 4:2:0
Битовая глубина : 8 бит
Тип развёртки : Прогрессивная
Бит/(Пиксели*Кадры) : 0.178
Размер потока : 1,24 Гбайт (94%)
Default : Да
Forced : Нет

Аудио
Идентификатор : 2
Формат : AC-3
Формат/Информация : Audio Coding 3
Расширение режима : CM (complete main)
Параметр Endianness формата : Big
Идентификатор кодека : A_AC3
Продолжительность : 43 м.
Вид битрейта : Постоянный
Битрейт : 192 Кбит/сек
Каналы : 2 канала
Расположение каналов : Front: L R
Частота : 48,0 КГц
Битовая глубина : 16 бит
Метод сжатия : С потерями
Размер потока : 59,4 Мбайт (4%)
Default : Да
Forced : Нет



   Похожие торренты   Торрент   Размер 
В этой теме нет новых непрочитанных сообщений. Письмо Дракуле / Dear Dracula (2012) HDTVRip от Deadmauvlad | D

79 | 49

640.09 МБ

В этой теме нет новых непрочитанных сообщений. Дракула: мертвый и довольный / Dracula: Dead And Loving It (1995) HDTV 720p от FreeHD

22 | 4

4.72 ГБ

В этой теме нет новых непрочитанных сообщений. Дракула 3D / Dracula (2012) BDRip 720p | L2

12 | 3

4.52 ГБ

В этой теме нет новых непрочитанных сообщений. Дракула / Dracula (2012) BDRip 720p от CINEMANIA | P, 2xA, L2

8 | 7

6.06 ГБ

В этой теме нет новых непрочитанных сообщений. Дракула / Dracula (2012) BDRip 720p | Лицензия

11 | 5

4.72 ГБ

В этой теме нет новых непрочитанных сообщений. Dracula 3: Адвокат дьявола / Dracula 3 - The Path of the Dragon (2008) PC | Repack от LandyNP2

3 | 2

2.34 ГБ

В этой теме нет новых непрочитанных сообщений. Дочь Дракулы / La fille de Dracula / Dracula's daughter (1972) DVDRip от KinoRay & Sheikn | A

80 | 15

700.86 МБ




Вы не можете начинать темы
Вы не можете отвечать на сообщения
Вы не можете редактировать свои сообщения
Вы не можете удалять свои сообщения
Вы не можете добавлять вложения

Перейти:  
Для Мосгорсуда, Роскомнадзора и рекламодателей: mosgorsud-torrent[собачка]yandex.ru
 Вход
ppkBB3cker v.2 © 2008-2014 @ PPK
[ Time : 0.028s | 15 Queries | GZIP : Off ]

Торрент трекер RUTOR.IN, Не можете зайти на rutor.org? Какой новый адрес рутор? Какое зеркало рутор? Не работает rutor.org и зеркала? Тогда наш торрент специально для вас. Rutor.in неофициальное зеркало rutor. В случае если у Вас заблокирован rutor или вдруг Вы не можете на него зайти, то Вы без труда сможете скачать бесплатно и без рекламы последние новинки кино, игр, сериалов и прочего у нас, на Rutor.in. Не нужно использовать прокси, чтобы зайти на рутор, достаточно воспользоваться нашим ресурсом. Все новые фильмы, игры, сериалы, книги и музыка за 2013 и 2014 годы через торрент бесплатно. Скачивайте фильмы в хорошем качестве, игры для пк, xbox, playstation без регистрации. У нас вы найдете новые Зарубежные сериалы и Русские сериалы 2013, 2014, 2015 годов. Оставайтесь с нами, качайте любимые фильмы, игры, сериалы, книги и музыку.