img image001 image001 image001 image001 image001 image001 image001 image001 image001 image001 image001 image001 image001 image001 image001

Planets Sun Sun Sun
Статистика раздачи
Автор: Nickolas3434 | Размер: 7.66 ГБ | Добавлен: 11 июн 2014
Раздают: 42    Качают: 23
Скачать торрент
Скачать торрент
Описание торрента

СообщениеДобавлено: 11 июн 2014 


Выпущено: США / Hasbro Studios, Darby Pop Productions
Год выпуска: 2010 - 2011
Жанр: мультфильм, боевик, приключения
Продолжительность: 26 х ~ 00:21:00

Перевод: Профессиональный (дублированный)
Оригинальная аудиодорожка: нет
Субтитры: нет

Режиссер: Рэнди Майерс / Randy Myers, Кевин Алтери / Kevin Altieri, Скотт Берн / Scott Bern...

Роли озвучивали: Джейсон Мэрсден, Мэттью Кинг, Кевин Майкл Ричардсон, Наталья Сиглиути, Дэвид Кэй, Татьяна Яссукович, Чарльз Адлер, Чарли Шлэттер, Ника Футтерман, Джонни Месснер...

Роли дублировали: Студия SDI Media, Диомид Виноградов, Алексей Костричкин, Илья Хвостиков, Олег Куценко, Андрей Гриневич, Ольга Зверева, Ольга Кузнецова, Дмитрий Филимонов, Лариса Брохман

Описание: Команда юных бойцов специального назначения оказывается вне закона после неудачно проведенной разведывательной операции на одном из объектов корпорации «Кобра Индастриз». Теперь заклейменные за преступления, которых не совершали, они вынуждены бороться. Преследуемые властями и наемниками «Кобры», ребята должны мобилизовать все силы и способности, чтобы доказать свою невиновность и явить миру истинное лицо коварной корпорации и ее лидера — таинственного Адама де Кобрея.







Качество видео: DVDRip-AVC [4 х DVD9 R5 + 2 x DVD5 R5] - от компании "Новый Диск"
Формат видео: MKV

Видео: 720x576@1024x576 (16:9), MPEG-4 AVC 1808 Кбит/сек 25,000 fps / Бит/(Пиксели*Кадры): 0.174
Аудио: Dolby Digital Audio Russian 192 kbps 2.0 / 48 kHz

Раздача от:

01. Падение – часть 1 / The Descent: Part 1, 26 ноября 2010
02. Падение – часть 2 / The Descent: Part 2, 26 ноября 2010
03. Ярость / Rage, 3 декабря 2010
04. Дредноксы атакуют / Dreadnoks Rising, 10 декабря 2010
05. Посылка / The Package, 17 декабря 2010
06. Возвращение Арашикаги – часть 1 / Return of the Arashikage Part 1, 24 декабря 2010
07. Возвращение Арашикаги – часть 2 / Return of the Arashikage Part 2, 24 декабря 2010
08. За решеткой / Busted, 7 января 2011
09. Враг моего врага / The Enemy of My Enemy, 14 января 2011
10. Жаркая схватка / Fire Fight, 28 января 2011
11. Возвращение домой – часть 1 / Homecoming Part 1, 4 февраля 2011
12. Возвращение домой – часть 2 / Homecoming Part 2, 11 февраля 2011
13. Братство света / Brothers of Light, 11 марта 2011
14. Найди 10 отличий / Knockoffs, 18 марта 2011
15. Белая тьма / White Out, 25 марта 2011
16. Мореплаватели / Shipwrecked, 16 апреля 2011
17. Замок Дестро / Castle Destro, 23 апреля 2011
18. Союз Змеи / Union of the Snake, 30 апреля 2011
19. Укус Анаконды / The Anaconda Strain, 7 мая 2011
20. Возвращение с того света / Prodigal, 14 мая 2011
21. Аномалия / The Anomaly, 11 июня 2011
22. На острие / Cutting Edge, 18 июня 2011
23. Кузены / Cousins, 25 июня 2011
24. Под землей / Going Underground, 9 июля 2011
25. Разоблачение – часть 1 / Revelations: Part 1, 16 июля 2011
26. Разоблачение – часть 2 / Revelations: Part 2, 23 июля 2011

Внимание! Раздача ведётся путём добавления новых серий; при каждом добавлении создаётся новый торрент-файл. Чтобы начать докачку новой серии, пользователям необходимо сделать следующее:
(1) остановить скачивание;
(2) удалить старый торрент-файл у себя из клиента (старые серии удалять не надо);
(3) скачать новый торрент-файл и запустить его у себя в клиенте вместо старого, при этом указать клиенту путь в старую папку куда и должно происходить скачивание новых серий.
Ваш клиент при этом должен произвести хеширование (проверку) старой папки (если он не производит проверку сам – помогите ему сделать это), и будет докачивать только те серии которых у вас ещё нет. Старые серии при этом не удаляются, а продолжают раздаваться!
Если вы уже удалили старые серии, то предотвратить повторную закачку старых серий можно, отжав галочку в соответствующих местах при запуске нового торрент-файла. Желательно старые серии не удалять как можно дольше, чтобы релизёр не столько продолжал раздавать старые серии, а смог сконцентрироваться на новых.

Общее
Полное имя : Brosok.Kobry.Dezertiry.2010.D.S1.DVDRip-AVC_[New-Team]_by_avproh�1.Padenie.ch1.mkv
Формат : Matroska
Версия формата : Version 4 / Version 2
Размер файла : 301 Мбайт
Продолжительность : 21 м.
Общий поток : 2001 Кбит/сек
Дата кодирования : UTC 2014-06-07 03:56:43
Программа кодирования : mkvmerge v6.9.1 ('Blue Panther') 64bit built on Apr 18 2014 18:23:38
Библиотека кодирования : libebml v1.3.0 + libmatroska v1.4.1

Видео
Идентификатор : 1
Формат : AVC
Формат/Информация : Advanced Video Codec
Профиль формата : High@L4.1
Параметр CABAC формата : Да
Параметр ReFrames формата : 8 кадров
Идентификатор кодека : V_MPEG4/ISO/AVC
Продолжительность : 21 м.
Битрейт : 1808 Кбит/сек
Ширина : 720 пикселей
Высота : 576 пикселей
Соотношение сторон : 16:9
Режим частоты кадров : Постоянный
Частота кадров : 25,000 кадров/сек
Стандарт вещания : PAL
Цветовое пространство : YUV
Субдискретизация насыщенности : 4:2:0
Битовая глубина : 8 бит
Тип развёртки : Прогрессивная
Бит/(Пиксели*Кадры) : 0.174
Размер потока : 266 Мбайт (88%)
Библиотека кодирования : x264 core 138 r2356 a1d3d17
Настройки программы : cabac=1 / ref=8 / deblock=1:-2:-1 / analyse=0x3:0x113 / me=umh / subme=10 / psy=1 / psy_rd=1.00:0.05 / mixed_ref=1 / me_range=32 / chroma_me=1 / trellis=2 / 8x8dct=1 / cqm=0 / deadzone=21,11 / fast_pskip=0 / chroma_qp_offset=-3 / threads=6 / lookahead_threads=1 / sliced_threads=0 / nr=0 / decimate=0 / interlaced=0 / bluray_compat=0 / constrained_intra=0 / bframes=8 / b_pyramid=2 / b_adapt=2 / b_bias=0 / direct=3 / weightb=1 / open_gop=0 / weightp=2 / keyint=250 / keyint_min=25 / scenecut=40 / intra_refresh=0 / rc=2pass / mbtree=0 / bitrate=1808 / ratetol=1.0 / qcomp=0.60 / qpmin=0 / qpmax=69 / qpstep=4 / cplxblur=20.0 / qblur=0.5 / ip_ratio=1.40 / pb_ratio=1.30 / aq=1:1.00
Язык : English
Default : Да
Forced : Нет

Аудио
Идентификатор : 2
Формат : AC-3
Формат/Информация : Audio Coding 3
Расширение режима : CM (complete main)
Параметр Endianness формата : Big
Идентификатор кодека : A_AC3
Продолжительность : 21 м.
Вид битрейта : Постоянный
Битрейт : 192 Кбит/сек
Каналы : 2 канала
Расположение каналов : Front: L R
Частота : 48,0 КГц
Битовая глубина : 16 бит
Метод сжатия : С потерями
Размер потока : 28,9 Мбайт (10%)
Язык : Russian
Default : Да
Forced : Нет





   Похожие торренты   Торрент   Размер 
В этой теме нет новых непрочитанных сообщений. Бросок кобры: G.I. Joe: Дезертиры / G.I. Joe: Renegades [S01] (2010-2011) DVDRip от New-Team | D | лицензия

90 | 19

7.66 ГБ

В этой теме нет новых непрочитанных сообщений. Бросок кобры: G.I. Joe: Дезертиры / G.I. Joe: Renegades [S01] (2010-2011) 4xDVD9 + 2xDVD5 от New-Team | D | Лицензия

4 | 8

29.5 ГБ

В этой теме нет новых непрочитанных сообщений. Бросок кобры: Дезертиры / G.I. Joe: Renegades [S01] (2010-2011) WEB-DL 720p от MediaClub

0 | 33

18.27 ГБ

В этой теме нет новых непрочитанных сообщений. Бросок кобры: Дезертиры / G.I. Joe: Renegades [S01] (2010-2011) WEB-DL 1080p от MediaClub

11 | 3

19.84 ГБ

В этой теме нет новых непрочитанных сообщений. Бросок кобры: Дилогия / G.I. Joe: Dilogy (2009-2013) 2xDVD9 от New-Team | D | Лицензия

70 | 24

13.35 ГБ

В этой теме нет новых непрочитанных сообщений. Бросок Кобры 2 / G.I. Joe: Retaliation (2013) DVD9 | D | Лицензия

25 | 3

6.28 ГБ

В этой теме нет новых непрочитанных сообщений. G.I. Joe: Бросок кобры 2 / G.I. Joe: Retaliation (2013) Blu-Ray 1080p | Лицензия | Teatrical Cut

4 | 4

42.32 ГБ




Вы не можете начинать темы
Вы не можете отвечать на сообщения
Вы не можете редактировать свои сообщения
Вы не можете удалять свои сообщения
Вы не можете добавлять вложения

Перейти:  
Для Мосгорсуда, Роскомнадзора и рекламодателей: mosgorsud-torrent[собачка]yandex.ru
 Вход
ppkBB3cker v.2 © 2008-2014 @ PPK
[ Time : 0.029s | 17 Queries | GZIP : Off ]

Торрент трекер RUTOR.IN, Не можете зайти на rutor.org? Какой новый адрес рутор? Какое зеркало рутор? Не работает rutor.org и зеркала? Тогда наш торрент специально для вас. Rutor.in неофициальное зеркало rutor. В случае если у Вас заблокирован rutor или вдруг Вы не можете на него зайти, то Вы без труда сможете скачать бесплатно и без рекламы последние новинки кино, игр, сериалов и прочего у нас, на Rutor.in. Не нужно использовать прокси, чтобы зайти на рутор, достаточно воспользоваться нашим ресурсом. Все новые фильмы, игры, сериалы, книги и музыка за 2013 и 2014 годы через торрент бесплатно. Скачивайте фильмы в хорошем качестве, игры для пк, xbox, playstation без регистрации. У нас вы найдете новые Зарубежные сериалы и Русские сериалы 2013, 2014, 2015 годов. Оставайтесь с нами, качайте любимые фильмы, игры, сериалы, книги и музыку.