img image001 image001 image001 image001 image001 image001 image001 image001 image001 image001 image001 image001 image001 image001 image001

Planets Sun Sun Sun
Статистика раздачи
Автор: Nickolas3434 | Размер: 3.46 ГБ | Добавлен: 11 июн 2014
Раздают: 92    Качают: 29
Скачать торрент
Скачать торрент
Описание торрента

СообщениеДобавлено: 11 июн 2014 

Страна: Франция / Cyber Group Animation, Hits for kids
Год выпуска: 2004
Жанр: мультфильм, детский
Продолжительность: ~ 7 минут - серия

Перевод: Профессиональный (многоголосый, закадровый)
Оригинальная аудиодорожка: нет
Субтитры: нет

Режиссер: Оливье Леларду / Olivier Lelardoux

В ролях (озвучка): неизвестно

Описание: В далекой Арктике живут пять очаровательных пингвинят: Эд, Тед, Нед, Фред и прелестная Нелли. Живут бок о бок и во всем поддерживают друг друга. Их ждет много увлекательных приключений, куча удивительных историй и невероятное количество веселья!





Исходник: 3 x DVD5 R5 от компании "Новый диск"
Качество: DVDRip
Формат: AVI

Видео: 720x544 (4:3), 25.000 fps, XViD ~ 1800 kbps avg, ~ 0.184 bit/pixel
Аудио: 48 kHz, АС3 2 ch, 192 kbps, русский

Раздача от:

Внимание! Раздача ведётся путём добавления новых серий; при каждом добавлении создаётся новый торрент-файл. Чтобы начать докачку новой серии, пользователям необходимо сделать следующее:
(1) остановить скачивание;
(2) удалить старый торрент-файл у себя из клиента (старые серии удалять не надо);
(3) скачать новый торрент-файл и запустить его у себя в клиенте вместо старого, при этом указать клиенту путь в старую папку, куда и должно происходить скачивание новых серий.
Ваш клиент при этом должен произвести хеширование (проверку) старой папки (если он не производит проверку сам – помогите ему сделать это), и будет докачивать только те серии, которых у вас ещё нет. Старые серии при этом не удаляются, а продолжают раздаваться!
Если вы уже удалили старые серии, то предотвратить повторную закачку старых серий можно, отжав галочку в соответствующих местах при запуске нового торрент-файла. Желательно старые серии не удалять как можно дольше, чтобы релизёр не столько продолжал раздавать старые серии, а смог сконцентрироваться на новых.

Приключения пингвинят - Весёлые истории (2004)
01.Нэд и Кико / Ned’s Kiko
02.Таинственный призрак / The Shipwrecked Ghost
03.Северный призрак / The Ghost On The Ice Floe
04.Пираты / The Pirates
05.Волейбол / Volleyball
06.Обжора Эд / Ted Eats Too Much
07.Нежданные соседи / Some Not So Welcome Neighbours
08.Предатель / The Traitor
09.Рождество / Christmas Time
10.Эд и Рой / Ed The Hero
11.Нелли-звезда / Nelly The Star

Приключения пингвинят - Новые истории (2004)
01.Это не смешно / Making Fun Isn’t Very Funny
02.Санта, мы тебя ждали / Santa, Coming In For A Landing
03.Спасём природу / Pollution Alert
04.Нэд потерял память / Ned’s Lost His Memory
05.Салёнок под водой / Hooter’s Diving Mask
06.Хэйд и Кайт / Curing The Hiccups
07.Искатели сокровищ / The Treasure Hunt
08.Короткий сон Эда / Ted’s Nap
09.Не жульничать / Cheaters Never Win
10.Друг или враг / Helping Your Enemy
11.Свет, камера, мотор / Lights, Camera, Action
12.Старость - не в радость / Growing Pains
13.Маленькие обжоры / Watch What You Eat

Приключения пингвинят – Лучшие друзья (2004)
01. День рождения Раджика / Rajah's Birthday
02. Фотограф Эд / The Photos
03. Нестрашный Эд / Not Even Scared
04. Один за всех / One For All
05. Ну и беспорядок / What A Mess
06. Эд Круза / Ed Crusoe
07. Мыльные пузыри / The Bubbles
08. Жадина Фред / Selfish Fred
09. День рождения Эда / Ed's Birthday
10. Нелли заболела / Nelly's Contagious
11. Скажи правду / Telling The Truth
12. Редкая жемчужина / A Rare Pearl
13. Большая вечеринка / A Party For Everyone

Общее
Полное имя : Priklyucheniya.pingvinyat.20041.Veselye.istorii.20041.Ned.i.Kiko.avi
Формат : AVI
Формат/Информация : Audio Video Interleave
Размер файла : 96,1 Мбайт
Продолжительность : 6 м. 43 с.
Общий поток : 2001 Кбит/сек
Программа кодирования : VirtualDubMod 1.5.10.3 | www.virtualdub-fr.org || (build 2550/release)
Библиотека кодирования : VirtualDubMod build 2550/release

Видео
Идентификатор : 0
Формат : MPEG-4 Visual
Профиль формата : Advanced Simple@L5
Параметр BVOP формата : 1
Параметр QPel формата : Нет
Параметр GMC формата : Без точки перехода
Параметр матрицы формата : Выборочная
Идентификатор кодека : XVID
Идентификатор кодека/Подсказка : XviD
Продолжительность : 6 м. 43 с.
Битрейт : 1799 Кбит/сек
Ширина : 720 пикселей
Высота : 544 пикселя
Соотношение сторон : 4:3
Частота кадров : 25,000 кадров/сек
Цветовое пространство : YUV
Субдискретизация насыщенности : 4:2:0
Битовая глубина : 8 бит
Тип развёртки : Прогрессивная
Метод сжатия : С потерями
Бит/(Пиксели*Кадры) : 0.184
Размер потока : 86,4 Мбайт (90%)
Библиотека кодирования : XviD 73

Аудио
Идентификатор : 1
Формат : AC-3
Формат/Информация : Audio Coding 3
Расширение режима : CM (complete main)
Параметр Endianness формата : Big
Идентификатор кодека : 2000
Продолжительность : 6 м. 42 с.
Вид битрейта : Постоянный
Битрейт : 192 Кбит/сек
Каналы : 2 канала
Расположение каналов : Front: L R
Частота : 48,0 КГц
Битовая глубина : 16 бит
Метод сжатия : С потерями
Размер потока : 9,22 Мбайт (10%)
Выравнивание : Разделение по промежуткам
Продолжительность промежутка : 40 мс. (1,00 видеокадр)
Время предзагрузки промежутка : 500 мс.





   Похожие торренты   Торрент   Размер 
В этой теме нет новых непрочитанных сообщений. Приключения пингвинят / Ozie Boo! [01-116 из ??] (2004) DVDRip от New-Team | D | лицензия

23 | 12

7.53 ГБ

В этой теме нет новых непрочитанных сообщений. Приключения пингвинят / Ozie Boo! [01-73 из ??] (2004) DVDRip от New-Team | D | лицензия

11 | 11

5.39 ГБ

В этой теме нет новых непрочитанных сообщений. Приключения пингвинят / Ozie Boo! (2004) 3 x DVD5 от New-Team | P | Лицензия

22 | 20

11.48 ГБ

В этой теме нет новых непрочитанных сообщений. Приключения пингвинят / Ozie Boo! [01x01-73 из ??] (2004) 5 x DVD5 от New-Team | P | Лицензия

2 | 5

17.25 ГБ

В этой теме нет новых непрочитанных сообщений. Приключения пингвинят / Ozie Boo! [1 - 129 из ??] (Оливье Леларду / Olivier Lelardoux) [2004..., Франция, мультфильм, детский, DVDRip] MVO

88 | 17

8.74 ГБ

В этой теме нет новых непрочитанных сообщений. Смешарики. Новые приключения [01-40 из ?] + 6 бонусов (2013) DVDRip от New-Team | лицензия

86 | 22

6.63 ГБ

В этой теме нет новых непрочитанных сообщений. Смешарики. Новые приключения [01-40 из ?] + 6 бонусов (2013) DVDRip-AVC от New-Team | лицензия

68 | 15

6.61 ГБ




Вы не можете начинать темы
Вы не можете отвечать на сообщения
Вы не можете редактировать свои сообщения
Вы не можете удалять свои сообщения
Вы не можете добавлять вложения

Перейти:  
Для Мосгорсуда, Роскомнадзора и рекламодателей: mosgorsud-torrent[собачка]yandex.ru
 Вход
ppkBB3cker v.2 © 2008-2014 @ PPK
[ Time : 0.044s | 16 Queries | GZIP : Off ]

Торрент трекер RUTOR.IN, Не можете зайти на rutor.org? Какой новый адрес рутор? Какое зеркало рутор? Не работает rutor.org и зеркала? Тогда наш торрент специально для вас. Rutor.in неофициальное зеркало rutor. В случае если у Вас заблокирован rutor или вдруг Вы не можете на него зайти, то Вы без труда сможете скачать бесплатно и без рекламы последние новинки кино, игр, сериалов и прочего у нас, на Rutor.in. Не нужно использовать прокси, чтобы зайти на рутор, достаточно воспользоваться нашим ресурсом. Все новые фильмы, игры, сериалы, книги и музыка за 2013 и 2014 годы через торрент бесплатно. Скачивайте фильмы в хорошем качестве, игры для пк, xbox, playstation без регистрации. У нас вы найдете новые Зарубежные сериалы и Русские сериалы 2013, 2014, 2015 годов. Оставайтесь с нами, качайте любимые фильмы, игры, сериалы, книги и музыку.