img image001 image001 image001 image001 image001 image001 image001 image001 image001 image001 image001 image001 image001 image001 image001

Planets Sun Sun Sun
Статистика раздачи
Автор: Nickolas3434 | Размер: 4.09 ГБ | Добавлен: 11 июн 2014
Раздают: 237    Качают: 33
Скачать торрент
Скачать торрент
Описание торрента

СообщениеДобавлено: 11 июн 2014 


#77
Информация о фильме
    Русское название: Вольт
    Оригинальное название: Bolt
    Год выхода: 2008
    Жанр: Фантастика, приключения, семейный
    Режиссер: Байрон Ховард, Крис Уильямс
    Выпущено: США
    Продолжительность: 01:36:21
    Перевод: Дублированный
    Роли озвучивали: Джон Траволта, Майли Сайрус, Сьюзи Эссман, Марк Уолтон, Малкольм МакДауэлл, Джеймс Липтон, Ник Свардсон, Жан-Поль Мано, Дэн Фогельман, Кэри Уолгрен, Хлоя Грейс Морец...


Сюжет фильма
    Пес по кличке «Вольт» всю жизнь снимается в телевизионном сериале, где его герой - суперпес - спасает человечество, используя свои необычайные способности. Сам Вольт свято верит в собственную неуязвимость, невероятную силу, и умение летать. Когда же судьба забрасывает его в полный опасностей Большой Город, он все еще думает, что это - лишь очередной эпизод телесериала...


Файл
    Качество: BDRip 720p (исходник Blu-ray Disc)
    Видео: 1280x720, 4792 Кбит/сек, 59.940 кадр/сек, AVC, x264, High@L4.1, 16:9, 0.087 Бит/[Пиксели*Кадры]
    Аудио 1: AC-3, 640 Кбит/сек, 6 канала(ов), 48,0 КГц - Дублированный / Русский
    Аудио 2: AC-3, 640 Кбит/сек, 6 канала(ов), 48,0 КГц - Оригинал / Английский
    Субтитры: Русские | Полные, Английские | Полные
    Чаптеры (Главы): Есть



Автор Рипа: Сообщество:



Format : Matroska
Format version : Version 2
File size : 4.09 GiB
Duration : 1h 36mn
Overall bit rate : 6 076 Kbps
Movie name : Вольт.(2008).BDRip.720p.[envy].[60fps]
Encoded date : UTC 2014-06-09 04:25:19
Writing application : mkvmerge v5.8.0 ('No Sleep / Pillow') built on Sep 2 2012 15:37:04
Writing library : libebml v1.2.3 + libmatroska v1.3.0

Video
ID : 1
Format : AVC
Format/Info : Advanced Video Codec
Format profile : High@L4.1
Format settings, CABAC : Yes
Format settings, ReFrames : 9 frames
Codec ID : V_MPEG4/ISO/AVC
Duration : 1h 36mn
Bit rate : 4 792 Kbps
Width : 1 280 pixels
Height : 720 pixels
Display aspect ratio : 16:9
Frame rate mode : Constant
Frame rate : 59.880 fps
Original frame rate : 59.940 fps
Color space : YUV
Chroma subsampling : 4:2:0
Bit depth : 8 bits
Scan type : Progressive
Bits/(Pixel*Frame) : 0.087
Stream size : 3.15 GiB (77%)
Title : Вольт.(2008).BDRip.720p.[envy].[60fps]
Writing library : x264 core 130 r2273 b3065e6
Encoding settings : cabac=1 / ref=9 / deblock=1:-1:-1 / analyse=0x3:0x133 / me=umh / subme=11 / psy=1 / psy_rd=1.00:0.10 / mixed_ref=1 / me_range=32 / chroma_me=1 / trellis=2 / 8x8dct=1 / cqm=0 / deadzone=21,11 / fast_pskip=0 / chroma_qp_offset=-3 / threads=12 / lookahead_threads=2 / sliced_threads=0 / nr=0 / decimate=1 / interlaced=0 / bluray_compat=0 / constrained_intra=0 / bframes=8 / b_pyramid=2 / b_adapt=2 / b_bias=0 / direct=3 / weightb=1 / open_gop=0 / weightp=2 / keyint=250 / keyint_min=25 / scenecut=40 / intra_refresh=0 / rc=2pass / mbtree=0 / bitrate=4792 / ratetol=1.0 / qcomp=0.60 / qpmin=0 / qpmax=69 / qpstep=4 / cplxblur=20.0 / qblur=0.5 / ip_ratio=1.40 / pb_ratio=1.30 / aq=2:1.00
Language : English
Default : Yes
Forced : No

Audio #1
ID : 2
Format : AC-3
Format/Info : Audio Coding 3
Mode extension : CM (complete main)
Format settings, Endianness : Big
Codec ID : A_AC3
Duration : 1h 36mn
Bit rate mode : Constant
Bit rate : 640 Kbps
Channel count : 6 channels
Channel positions : Front: L C R, Side: L R, LFE
Sampling rate : 48.0 KHz
Bit depth : 16 bits
Compression mode : Lossy
Stream size : 441 MiB (11%)
Title : Dub
Language : Russian
Default : Yes
Forced : No

Audio #2
ID : 3
Format : AC-3
Format/Info : Audio Coding 3
Mode extension : CM (complete main)
Format settings, Endianness : Big
Codec ID : A_AC3
Duration : 1h 36mn
Bit rate mode : Constant
Bit rate : 640 Kbps
Channel count : 6 channels
Channel positions : Front: L C R, Side: L R, LFE
Sampling rate : 48.0 KHz
Bit depth : 16 bits
Compression mode : Lossy
Stream size : 441 MiB (11%)
Title : Eng
Language : English
Default : No
Forced : No

Text #1
ID : 4
Format : UTF-8
Codec ID : S_TEXT/UTF8
Codec ID/Info : UTF-8 Plain Text
Title : full
Language : Russian
Default : No
Forced : No

Text #2
ID : 5
Format : UTF-8
Codec ID : S_TEXT/UTF8
Codec ID/Info : UTF-8 Plain Text
Title : full
Language : English
Default : No
Forced : No

Menu
00:00:00.000 : ru:01. Начало
00:02:31.651 : ru:02. 5 лет спустя
00:11:00.660 : ru:03. Микрофон-пушка
00:13:47.201 : ru:04. Защищая Пенни
00:19:19.950 : ru:05. Неожиданный поворот
00:24:18.874 : ru:06. Посылка пришла
00:27:14.383 : ru:07. "Я знаю этого пса"
00:29:48.703 : ru:08. Знакомство с Миттенами
00:35:25.832 : ru:09. Дорожное путешествие
00:42:09.569 : ru:10. Рино!
00:51:41.974 : ru:11. Большой побег
01:01:58.339 : ru:12. Как быть собакой
01:08:16.008 : ru:13. "На расстоянии одной вафли"
01:13:02.711 : ru:14. Соавторы
01:18:53.061 : ru:15. Огонь!
01:29:36.830 : ru:16. Финальные титры


#77
#77

Прежде чем скачивать фильм полностью, скачайте "сэмпл", и проверьте будет ли воспроизводится видео на вашем устройстве!

Q: Присутствуют ли артефакты на изображении?
A: Да, есть, и будут, какие настройки кодека не вписывай они будут постоянно! хоть они и обработаны фильтром "Sharp", но они выглядят вполне смотрибельно.
+ > Артефактов стало меньше! Переписал скрипт кодирования.

Q: У меня не запускается видео на компьютере.
A: Обновите кодеки. (попробуйте другие видео проигрыватели)

Q: Что нужно для воспроизведения данного видео.
A: Что рекомендуется для воспроизведения:
Процессор: рекомендую 4х ядерный
Видео карта: минимум 512Мб. И желательно включить обработку изображения с помощью видео карты. (Деинтерлейсинг, подавление блочности и т.д.)
ОЗУ: 2Гб

Проигрыватели.
MPC-HC (Media Player Classic - Home Cinema)
The KMPlayer (Korean Multimedia Player) (оптимальный вариант)
Mirillis Splash PRO (Если что то проигрыватель сам может преобразовывать видео вплоть до частоты кадров монитора. Или тех же 60fps.)

^Прежде чем отписывать комментарии по качеству, прочитайте спойлер!

Внимание: Данные фильмы делаются (кому нужно знает где) с обязательным указанием ||60FPS|| !



   Похожие торренты   Торрент   Размер 
В этой теме нет новых непрочитанных сообщений. Вольт 3D / Bolt 3D (2008) BDRip 720p

14 | 7

3.74 ГБ

В этой теме нет новых непрочитанных сообщений. Вольт / Bolt (2008) BDRip 720p от DHT-Movies

489 | 19

2.08 ГБ

В этой теме нет новых непрочитанных сообщений. Вольт / Bolt (2008) BDRip-AVC от R.G. AVI | AVC

39 | 9

2.18 ГБ

В этой теме нет новых непрочитанных сообщений. Вольт / Bolt (2008) BDRip-AVC

106 | 11

701.43 МБ

В этой теме нет новых непрочитанных сообщений. Вольт 3D / Bolt 3D (2008) BDRip 1080p | 3D

128 | 6

5.09 ГБ

В этой теме нет новых непрочитанных сообщений. Вольт / Bolt (2008) BDRip 1080p

316 | 24

4.37 ГБ

В этой теме нет новых непрочитанных сообщений. Вольт / Bolt (2008) BDRip от HELLYWOOD

2103 | 57

1.45 ГБ




Вы не можете начинать темы
Вы не можете отвечать на сообщения
Вы не можете редактировать свои сообщения
Вы не можете удалять свои сообщения
Вы не можете добавлять вложения

Перейти:  
Для Мосгорсуда, Роскомнадзора и рекламодателей: mosgorsud-torrent[собачка]yandex.ru
 Вход
ppkBB3cker v.2 © 2008-2014 @ PPK
[ Time : 0.022s | 15 Queries | GZIP : On ]

Торрент трекер RUTOR.IN, Не можете зайти на rutor.org? Какой новый адрес рутор? Какое зеркало рутор? Не работает rutor.org и зеркала? Тогда наш торрент специально для вас. Rutor.in неофициальное зеркало rutor. В случае если у Вас заблокирован rutor или вдруг Вы не можете на него зайти, то Вы без труда сможете скачать бесплатно и без рекламы последние новинки кино, игр, сериалов и прочего у нас, на Rutor.in. Не нужно использовать прокси, чтобы зайти на рутор, достаточно воспользоваться нашим ресурсом. Все новые фильмы, игры, сериалы, книги и музыка за 2013 и 2014 годы через торрент бесплатно. Скачивайте фильмы в хорошем качестве, игры для пк, xbox, playstation без регистрации. У нас вы найдете новые Зарубежные сериалы и Русские сериалы 2013, 2014, 2015 годов. Оставайтесь с нами, качайте любимые фильмы, игры, сериалы, книги и музыку.