img image001 image001 image001 image001 image001 image001 image001 image001 image001 image001 image001 image001 image001 image001 image001

Planets Sun Sun Sun
Статистика раздачи
Автор: Nickolas3434 | Размер: 1.85 ГБ | Добавлен: 11 июн 2014
Раздают: 93    Качают: 18
Скачать торрент
Скачать торрент
Описание торрента

СообщениеДобавлено: 11 июн 2014 

Лего. Фильм / The Lego Movie (2014) BDRip-AVC | iPad | D
«Кто был никем, тот всем ещё покажет»


Название: Лего. Фильм
Оригинальное название: The Lego Movie
Год выхода: 2014
Жанр: мультфильм, фэнтези, комедия, приключения, семейный
Режиссер: Фил Лорд, Кристофер Миллер
В ролях: Крис Прэтт, Уилл Феррелл, Элизабет Бэнкс, Уилл Арнетт, Лиам Нисон, Морган Фриман, Крэйг Берри, Элисон Бри, Дэвид Берроуз, Энтони Дэниелс

О фильме:
Обычная лего-фигурка соглашается присоединиться к походу против злого лего-диктатора, планирующего склеить вместе всю вселенную.



Страна: Австралия, США, Дания
Студия: Warner Bros., Village Roadshow Pictures, LEGO

Продолжительность: 01:40:35
Перевод: Русский дублированный

Файл
Кодек: H.264
Качество: BDRip [576p]
Видео: 1024x426 (2.40:1) at 23.976 fps, AVC at 2400 kbps
Звук:
1: АAС 2.0 136 kbps - Русский дублированный
Субтитры: отсутствуют

General
Complete name : C:CREATE264mod1outThe.Lego.Movie.2014.576p.D.m4v
Format : MPEG-4
Codec ID : M4V
File size : 1.85 GiB
Duration : 1h 40mn
Overall bit rate mode : Variable
Overall bit rate : 2 629 Kbps
Movie name : Лего. Фильм
Performer : Phil Lord & Christopher Miller
Genre : Kids & Family
ContentType : Short Film
Deion : Обычная лего-фигурка, ошибочно считающая себя фигуркой из элитного набора, соглашается присоединиться к походу против злого лего-диктатора, планирующего склеить вместе всю вселенную…
Recorded date : UTC 2014-06-20 07:00:00
Encoded date : UTC 2014-06-09 17:25:11
Tagged date : UTC 2014-06-09 17:53:15
Copyright : © 2014 Warner Bros. Entertainment Inc. All Rights Reserved.
Cover : Yes
Comment : «Кто был никем, тот всем ещё покажет»
ContentRating : mpaa|PG|200|

Title/Sort : The LEGO Movie
LongDeion : Обычная лего-фигурка, ошибочно считающая себя фигуркой из элитного набора, соглашается присоединиться к походу против злого лего-диктатора, планирующего склеить вместе всю вселенную…
AppleStoreCatalogID : 805178535
Vendor : Apple:vendor_id:2014-471644

Video
ID : 1
Format : AVC
Format/Info : Advanced Video Codec
Format profile : High@L4.1
Format settings, CABAC : Yes
Format settings, ReFrames : 10 frames
Codec ID : avc1
Codec ID/Info : Advanced Video Coding
Duration : 1h 40mn
Bit rate : 2 477 Kbps
Maximum bit rate : 16.3 Mbps
Width : 1 024 pixels
Height : 426 pixels
Display aspect ratio : 2.40:1
Frame rate mode : Constant
Frame rate : 23.976 fps
Color space : YUV
Chroma subsampling : 4:2:0
Bit depth : 8 bits
Scan type : Progressive
Bits/(Pixel*Frame) : 0.237
Stream size : 1.74 GiB (94%)
Title : The.Lego.Movie.2014
Language : English
Encoded date : UTC 2014-06-09 17:25:11
Tagged date : UTC 2014-06-09 17:25:21

Audio
ID : 2
Format : AAC
Format/Info : Advanced Audio Codec
Format profile : LC
Codec ID : 40
Duration : 1h 40mn
Bit rate mode : Variable
Bit rate : 136 Kbps
Maximum bit rate : 170 Kbps
Channel(s) : 2 channels
Channel positions : Front: L R
Sampling rate : 48.0 KHz
Compression mode : Lossy
Stream size : 97.8 MiB (5%)
Title : Dub
Language : Russian
Encoded date : UTC 2014-06-09 17:23:15
Tagged date : UTC 2014-06-09 17:25:21

Menu
ID : 3
Codec ID : text
Duration : 1h 40mn
Encoded date : UTC 2014-06-09 17:25:44
Tagged date : UTC 2014-06-09 17:25:44
Bit rate mode : CBR

x264 [info]: frame I:1367 Avg QP:15.39 size: 86816
x264 [info]: frame P:35471 Avg QP:19.87 size: 27149
x264 [info]: frame B:107865 Avg QP:22.34 size: 7297
x264 [info]: consecutive B-frames: 4.1% 3.7% 11.9% 29.7% 16.8% 17.0% 5.1% 4.6% 2.3% 0.8% 0.7% 0.5% 0.8% 1.0% 1.0%
x264 [info]: mb I I16..4: 8.5% 37.3% 54.2%
x264 [info]: mb P I16..4: 4.0% 10.9% 7.2% P16..4: 26.0% 26.8% 11.9% 4.2% 1.0% skip: 8.1%
x264 [info]: mb B I16..4: 0.6% 1.4% 1.0% B16..8: 26.6% 14.1% 3.0% direct: 3.5% skip:49.8% L0:37.5% L1:44.2% BI:18.3%
x264 [info]: 8x8 transform intra:46.8% inter:44.4%
x264 [info]: coded y,uvDC,uvAC intra: 69.4% 81.4% 64.7% inter: 16.8% 20.7% 12.1%
x264 [info]: i16 v,h,dc,p: 8% 20% 7% 66%
x264 [info]: i8 v,h,dc,ddl,ddr,vr,hd,vl,hu: 15% 16% 8% 7% 10% 10% 11% 10% 13%
x264 [info]: i4 v,h,dc,ddl,ddr,vr,hd,vl,hu: 17% 17% 10% 7% 10% 9% 10% 8% 11%
x264 [info]: i8c dc,h,v,p: 31% 28% 20% 21%
x264 [info]: Weighted P-Frames: Y:6.9% UV:5.5%
x264 [info]: ref P L0: 61.1% 12.3% 12.6% 4.6% 3.0% 2.1% 1.6% 0.9% 0.8% 0.7% 0.1% 0.0%
x264 [info]: ref B L0: 85.8% 6.8% 3.3% 1.4% 1.0% 0.7% 0.5% 0.3% 0.2%
x264 [info]: ref B L1: 94.5% 5.5%
x264 [info]: kb/s:2477.03

Sort Name: The LEGO Movie
XID: Apple:vendor_id:2014-471644
Content ID: 805178535
Copyright: © 2014 Warner Bros. Entertainment Inc. All Rights Reserved.
ScreenWriters: Фил Лорд, Кристофер Миллер, Дэн Хейгмен
Producers: Рой Ли, Дэн Лин, Эллисон Эббейт
Director: Фил Лорд, Кристофер Миллер
Cast: Крис Прэтт, Уилл Феррелл, Элизабет Бэнкс, Уилл Арнетт, Лиам Нисон, Морган Фриман, Крэйг Берри, Элисон Бри, Дэвид Берроуз, Энтони Дэниелс / Chris Pratt (Emmet Brickowoski (voice)), Elizabeth Banks (Wyldstyle (voice)), Will Ferrell (President Business (voice)), Will Arnett (Batman (voice)), Morgan Freeman (Vitruvius (voice)), Liam Neeson (Bad Cop/Good cop (voice)), Alison Brie (Uni-Kitty (voice)), Charlie Day (Spaceman Benny (voice)), Cobie Smulders (Wonder Woman (voice)), Channing Tatum (Superman (voice)), Jonah Hill (Green Lantern (voice)), Nick Offerman (Craggy (voice)), Dave Franco (Wally (voice)), Will Forte (Abraham Lincoln (voice)), Anthony Daniels (C-3PO (voice))
Rating: PG
Long Deion: Обычная лего-фигурка, ошибочно считающая себя фигуркой из элитного набора, соглашается присоединиться к походу против злого лего-диктатора, планирующего склеить вместе всю вселенную…
Deion: Обычная лего-фигурка, ошибочно считающая себя фигуркой из элитного набора, соглашается присоединиться к походу против злого лего-диктатора, планирующего склеить вместе всю вселенную…
Release Date: 2014-06-20T07:00:00Z
Genre: Kids & Family
Artist: Phil Lord & Christopher Miller
Name: Лего. Фильм
Comments: «Кто был никем, тот всем ещё покажет»







   Похожие торренты   Торрент   Размер 
В этой теме нет новых непрочитанных сообщений. Лего Фильм: Бэтмен / The LEGO Batman Movie (2017) BDRip 720p от KinoGadget | iPad | Лицензия

129 | 14

2.25 ГБ

В этой теме нет новых непрочитанных сообщений. Лего. Фильм / The Lego Movie (2014) BDRip 720p от MediaClub | D, A

154 | 29

5.08 ГБ

В этой теме нет новых непрочитанных сообщений. Лего. Фильм / The Lego Movie (2014) BDRip-AVC от ExKinoRay | Лицензия

279 | 11

2.18 ГБ

В этой теме нет новых непрочитанных сообщений. Лего. Фильм / The Lego Movie (2014) BDRip 720p | Лицензия

293 | 18

4.24 ГБ

В этой теме нет новых непрочитанных сообщений. Лего. Фильм / The Lego Movie (2014) BDRip 1080p от HDTracker | A, D

38 | 63

9.47 ГБ

В этой теме нет новых непрочитанных сообщений. Лего. Фильм / The Lego Movie (2014) BDRip от HELLYWOOD | Лицензия

52 | 57

2.51 ГБ

В этой теме нет новых непрочитанных сообщений. Лего. Фильм / The Lego Movie (2014) BDRip-AVC от HELLYWOOD | Лицензия

66 | 10

2.18 ГБ




Вы не можете начинать темы
Вы не можете отвечать на сообщения
Вы не можете редактировать свои сообщения
Вы не можете удалять свои сообщения
Вы не можете добавлять вложения

Перейти:  
Для Мосгорсуда, Роскомнадзора и рекламодателей: mosgorsud-torrent[собачка]yandex.ru
 Вход
ppkBB3cker v.2 © 2008-2014 @ PPK
[ Time : 0.038s | 16 Queries | GZIP : Off ]

cron