img image001 image001 image001 image001 image001 image001 image001 image001 image001 image001 image001 image001 image001 image001 image001

Planets Sun Sun Sun
Статистика раздачи
Автор: Nickolas3434 | Размер: 19.65 МБ | Добавлен: 11 июн 2014
Раздают: 871    Качают: 21
Скачать торрент
Скачать торрент
Описание торрента

СообщениеДобавлено: 11 июн 2014 

Информация о фильме:
Название: Круглое сафари
Оригинальное название: Rollin' Safari
Год выхода: 2012
Жанр: мультфильм, короткометражка
Режиссер: Kyra Buschor, Ännie Habermehl, Constantin Paeplow
В ролях: Зебры, ягуар, фламинго и даже крокодил.

О фильме:
В этом сафари все круглое. Круглые зебры, ягуар, фламинго и даже крокодил. Толстые и неповоротливые обитатели саванны ведут повседневную жизнь, однако размеры героев мультфильма «Круглое сафари» не дают им делать это с той легкостью, которую мы привыкли ждать от представителей дикой природы







Страна: Германия
Продолжительность: 02:01
Перевод: Не требуется

Файл:
Формат: MKV
Качество: BDRip-AVC
Видео: MPEG-4 AVC, 1024x576, 23.976 fps, 912 Kbps, 16:9
Аудио: AC3, 48,0 KHz, 2 ch, 448 Kbps
Размер: 19,65 Mb

Общее
Уникальный идентификатор : 222648889069490246547805943595080182166 (0xA7809DC2D8500CD3803A0A59882D6996)
Полное имя : Rollin'.Safari.BDRip-AVC.mkv
Формат : Matroska
Версия формата : Version 4 / Version 2
Размер файла : 19,7 Мбайт
Продолжительность : 2 м. 1 с.
Общий поток : 1356 Кбит/сек
Название фильма : Rollin' Safari (2012) BDRip-AVC -= Сотник =-
Дата кодирования : UTC 2014-06-09 18:26:46
Программа кодирования : mkvmerge v6.6.0 ('The Edge Of The In Between') built on Dec 1 2013 17:55:00
Библиотека кодирования : libebml v1.3.0 + libmatroska v1.4.1

Видео
Идентификатор : 1
Формат : AVC
Формат/Информация : Advanced Video Codec
Профиль формата : High@L4.0
Параметр CABAC формата : Да
Параметр ReFrames формата : 9 кадров
Идентификатор кодека : V_MPEG4/ISO/AVC
Продолжительность : 2 м. 1 с.
Битрейт : 912 Кбит/сек
Ширина : 1024 пикселя
Высота : 576 пикселей
Соотношение сторон : 16:9
Режим частоты кадров : Постоянный
Частота кадров : 25,000 кадров/сек
Цветовое пространство : YUV
Субдискретизация насыщенности : 4:2:0
Битовая глубина : 8 бит
Тип развёртки : Прогрессивная
Бит/(Пиксели*Кадры) : 0.062
Размер потока : 12,8 Мбайт (65%)
Библиотека кодирования : x264 core 138 r2358 9e941d1
Настройки программы : cabac=1 / ref=9 / deblock=1:-2:-2 / analyse=0x3:0x113 / me=umh / subme=10 / psy=1 / psy_rd=1.00:0.00 / mixed_ref=1 / me_range=24 / chroma_me=1 / trellis=2 / 8x8dct=1 / cqm=0 / deadzone=21,11 / fast_pskip=0 / chroma_qp_offset=-2 / threads=3 / lookahead_threads=1 / sliced_threads=0 / nr=0 / decimate=1 / interlaced=0 / bluray_compat=0 / constrained_intra=0 / bframes=5 / b_pyramid=2 / b_adapt=1 / b_bias=0 / direct=1 / weightb=1 / open_gop=0 / weightp=2 / keyint=240 / keyint_min=23 / scenecut=40 / intra_refresh=0 / rc=2pass / mbtree=0 / bitrate=912 / ratetol=1.0 / qcomp=0.60 / qpmin=0 / qpmax=69 / qpstep=4 / cplxblur=20.0 / qblur=0.5 / ip_ratio=1.40 / pb_ratio=1.30 / aq=2:0.90
Default : Да
Forced : Нет

Аудио
Идентификатор : 2
Формат : AC-3
Формат/Информация : Audio Coding 3
Расширение режима : CM (complete main)
Параметр Endianness формата : Big
Идентификатор кодека : A_AC3
Продолжительность : 2 м. 1 с.
Вид битрейта : Постоянный
Битрейт : 448 Кбит/сек
Каналы : 2 канала
Расположение каналов : Front: L R
Частота : 48,0 КГц
Битовая глубина : 16 бит
Метод сжатия : С потерями
Размер потока : 6,49 Мбайт (33%)
Default : Да
Forced : Нет






   Похожие торренты   Торрент   Размер 
В этой теме нет новых непрочитанных сообщений. Круглое сафари / Rollin' Safari (2012) BDRip 720p от FireBit-Films

154 | 2

53.36 МБ

В этой теме нет новых непрочитанных сообщений. Дикая Южная Африка: Сафари / Wildlife South Africa: Safari (2012) BDRip-AVC by msltel

28 | 8

1.21 ГБ

В этой теме нет новых непрочитанных сообщений. Дикая Южная Африка: Сафари / Wildlife South Africa: Safari (2012) BDRip от HitWay | P1

29 | 3

724.62 МБ

В этой теме нет новых непрочитанных сообщений. Дикая Южная Африка: Сафари / Wildlife South Africa: Safari (2012) BDRip 720p by msltel

44 | 12

1.71 ГБ

В этой теме нет новых непрочитанных сообщений. Дикая Южная Африка: Сафари / Wildlife South Africa: Safari (2012) BDRip 720p от denis 100 | P1

19 | 10

2.18 ГБ

В этой теме нет новых непрочитанных сообщений. Дикая Южная Африка: Сафари / Wildlife South Africa: Safari (2012) BDRip 1080p by msltel

70 | 15

4.27 ГБ

В этой теме нет новых непрочитанных сообщений. Сафари / Safari (2009) BDRip 720p

2 | 2

3.76 ГБ




Вы не можете начинать темы
Вы не можете отвечать на сообщения
Вы не можете редактировать свои сообщения
Вы не можете удалять свои сообщения
Вы не можете добавлять вложения

Перейти:  
Для Мосгорсуда, Роскомнадзора и рекламодателей: mosgorsud-torrent[собачка]yandex.ru
 Вход
ppkBB3cker v.2 © 2008-2014 @ PPK
[ Time : 0.051s | 17 Queries | GZIP : On ]

Торрент трекер RUTOR.IN, Не можете зайти на rutor.org? Какой новый адрес рутор? Какое зеркало рутор? Не работает rutor.org и зеркала? Тогда наш торрент специально для вас. Rutor.in неофициальное зеркало rutor. В случае если у Вас заблокирован rutor или вдруг Вы не можете на него зайти, то Вы без труда сможете скачать бесплатно и без рекламы последние новинки кино, игр, сериалов и прочего у нас, на Rutor.in. Не нужно использовать прокси, чтобы зайти на рутор, достаточно воспользоваться нашим ресурсом. Все новые фильмы, игры, сериалы, книги и музыка за 2013 и 2014 годы через торрент бесплатно. Скачивайте фильмы в хорошем качестве, игры для пк, xbox, playstation без регистрации. У нас вы найдете новые Зарубежные сериалы и Русские сериалы 2013, 2014, 2015 годов. Оставайтесь с нами, качайте любимые фильмы, игры, сериалы, книги и музыку.