img image001 image001 image001 image001 image001 image001 image001 image001 image001 image001 image001 image001 image001 image001 image001

Planets Sun Sun Sun
Статистика раздачи
Автор: Nickolas3434 | Размер: 1.69 ГБ | Добавлен: 11 июн 2014
Раздают: 91    Качают: 17
Скачать торрент
Скачать торрент
Описание торрента

СообщениеДобавлено: 11 июн 2014 

Меч в камне / The Sword in the Stone (1963) BDRip-AVC | iPad | D


Название: Меч в камне
Оригинальное название: The Sword in the Stone
Год выхода: 1963
Жанр: мультфильм, фэнтези, приключения, семейный
Режиссер: Вольфганг Райтерман
В ролях: Себастьян Кабот, Рикки Соренсен, Карл Свенсон, Джуниос Мэтьюз, Джинни Тайлер, Марта Вентуорф, Норман Элден, Алан Напье, Ричард Рейтерман, Роберт Рейтерман
О фильме:
В стародавние времена в центре Лондона появился громадный камень с замурованным в нем старинным мечом. Золотая надпись на мече гласила, что королем Англии станет тот, кто вытащит этот заколдованный меч, доказав тем самым свою особую силу и право на власть. Пока это не удавалось никому.
А между тем в далекой лесной глуши жил себе 11-летний мальчик Артур, прислуживал в замке и даже не подозревал, что именно ему предначертано в будущем стать великом королем. Но это предвидел живший неподалеку волшебник Мерлин. Он и его ученый филин Архимед стали наставниками парнишки, подвергнув своего юного воспитанника всевозможным испытаниям. Его поочередно превращали в животных трех разных стихий - рыбу, белку и птицу, чтобы мог он познать правду жизни во всех ее проявлениях и понять, что не в мышцах, а в мудрости и знании и есть настоящая сила человека.



Страна: США
Студия: Walt Disney

Продолжительность: 1:19:37
Перевод: Русский дублированный

Файл
Кодек: H.264
Качество: BDRip [576p]
Видео: 1024x576 (16:9) at 23.976 fps, AVC at 2900 kbps
Звук:
1: АAС 2.0 124 kbps - Русский дублированный
Субтитры: отсутствуют

General
Complete name : I:modoutThe.Sword.in.the.Stone.1963.576p.D.m4v
Format : MPEG-4
Codec ID : M4V
File size : 1.69 GiB
Duration : 1h 19mn
Overall bit rate mode : Variable
Overall bit rate : 3 030 Kbps
Movie name : Меч в камне
Performer : Wolfgang Reitherman
Genre : Kids & Family
ContentType : Short Film
Deion : В стародавние времена в центре Лондона появился громадный камень с замурованным в нем старинным мечом. Золотая надпись на мече гласила, что королем Англии станет тот, кто вытащит этот заколдованный меч, доказав тем самым свою особую силу
Recorded date : UTC 1963-12-25 08:00:00
Encoded date : UTC 2014-06-10 11:42:22
Tagged date : UTC 2014-06-10 11:45:24
Copyright :
Comment :
ContentRating :

Title/Sort : The Sword in the Stone
LongDeion : В стародавние времена в центре Лондона появился громадный камень с замурованным в нем старинным мечом. Золотая надпись на мече гласила, что королем Англии станет тот, кто вытащит этот заколдованный меч, доказав тем самым свою особую силу и право на власть. Пока это не удавалось никому.
AppleStoreCatalogID : 297917390
Vendor : Apple:vendor_id:1963-19382

Video
ID : 1
Format : AVC
Format/Info : Advanced Video Codec
Format profile : High@L4.1
Format settings, CABAC : Yes
Format settings, ReFrames : 10 frames
Codec ID : avc1
Codec ID/Info : Advanced Video Coding
Duration : 1h 19mn
Bit rate : 2 903 Kbps
Maximum bit rate : 9 368 Kbps
Width : 1 008 pixels
Height : 576 pixels
Display aspect ratio : 16:9
Frame rate mode : Constant
Frame rate : 23.976 fps
Color space : YUV
Chroma subsampling : 4:2:0
Bit depth : 8 bits
Scan type : Progressive
Bits/(Pixel*Frame) : 0.209
Stream size : 1.61 GiB (96%)
Title :
Language : English
Encoded date : UTC 2014-06-10 11:42:22
Tagged date : UTC 2014-06-10 11:42:29

Audio
ID : 2
Format : AAC
Format/Info : Advanced Audio Codec
Format profile : LC
Codec ID : 40
Duration : 1h 19mn
Bit rate mode : Variable
Bit rate : 124 Kbps
Maximum bit rate : 172 Kbps
Channel(s) : 2 channels
Channel positions : Front: L R
Sampling rate : 48.0 KHz
Compression mode : Lossy
Stream size : 70.8 MiB (4%)
Title : Dub
Language : Russian
Encoded date : UTC 2014-06-10 11:41:00
Tagged date : UTC 2014-06-10 11:42:29

Menu
ID : 3
Codec ID : text
Duration : 1h 19mn
Encoded date : UTC 2014-06-10 11:42:37
Tagged date : UTC 2014-06-10 11:42:37
Bit rate mode : CBR

x264 [info]: frame I:912 Avg QP:18.18 size: 88373
x264 [info]: frame P:31867 Avg QP:21.21 size: 29751
x264 [info]: frame B:81750 Avg QP:23.28 size: 8617
x264 [info]: consecutive B-frames: 4.7% 3.9% 20.2% 31.8% 25.6% 10.3% 1.5% 0.7% 0.5% 0.3% 0.1% 0.1% 0.3%
x264 [info]: mb I I16..4: 7.1% 33.0% 59.9%
x264 [info]: mb P I16..4: 2.0% 5.3% 6.2% P16..4: 32.5% 30.5% 14.1% 4.2% 0.7% skip: 4.4%
x264 [info]: mb B I16..4: 0.4% 0.6% 1.0% B16..8: 26.7% 13.8% 3.5% direct: 3.1% skip:51.0% L0:38.6% L1:50.0% BI:11.4%
x264 [info]: 8x8 transform intra:36.2% inter:29.3%
x264 [info]: coded y,uvDC,uvAC intra: 64.9% 67.5% 54.1% inter: 17.3% 18.0% 10.8%
x264 [info]: i16 v,h,dc,p: 17% 16% 18% 48%
x264 [info]: i8 v,h,dc,ddl,ddr,vr,hd,vl,hu: 10% 10% 19% 8% 10% 9% 11% 9% 15%
x264 [info]: i4 v,h,dc,ddl,ddr,vr,hd,vl,hu: 16% 12% 21% 7% 10% 8% 9% 7% 10%
x264 [info]: i8c dc,h,v,p: 39% 32% 19% 10%
x264 [info]: Weighted P-Frames: Y:12.4% UV:6.4%
x264 [info]: ref P L0: 57.0% 11.9% 12.5% 5.3% 3.7% 2.8% 2.5% 1.5% 1.4% 1.2% 0.3% 0.0%
x264 [info]: ref B L0: 82.5% 7.5% 3.7% 1.9% 1.4% 1.1% 0.9% 0.6% 0.4%
x264 [info]: ref B L1: 94.8% 5.2%
x264 [info]: kb/s:2902.52






   Похожие торренты   Торрент   Размер 
В этой теме нет новых непрочитанных сообщений. Меч в камне / The Sword in the Stone (1963) BDRip от HQCLUB

480 | 19

1.45 ГБ

В этой теме нет новых непрочитанных сообщений. Меч в камне / The Sword In The Stone (1963) BDRip-AVC от MediaClub | D, P, A

67 | 9

2.92 ГБ

В этой теме нет новых непрочитанных сообщений. Меч в камне / The Sword in the Stone (1963) BDRip 1080p от Freeisland

123 | 14

5.76 ГБ

В этой теме нет новых непрочитанных сообщений. Меч в камне / The Sword in the Stone (1963) DVDRip

16 | 3

2.19 ГБ

В этой теме нет новых непрочитанных сообщений. Меч в камне / The Sword in the Stone (1963) HDTVRip от HQ-ViDEO

132 | 10

1.46 ГБ

В этой теме нет новых непрочитанных сообщений. Меч в камне / The Sword in the Stone (1963) HDTVRip от Youtracker | D, P

35 | 5

1.46 ГБ

В этой теме нет новых непрочитанных сообщений. Меч в камне / The Sword in the Stone (1963) HDTVRip от Youtracker | D

30 | 3

744.88 МБ




Вы не можете начинать темы
Вы не можете отвечать на сообщения
Вы не можете редактировать свои сообщения
Вы не можете удалять свои сообщения
Вы не можете добавлять вложения

Перейти:  
Для Мосгорсуда, Роскомнадзора и рекламодателей: mosgorsud-torrent[собачка]yandex.ru
 Вход
ppkBB3cker v.2 © 2008-2014 @ PPK
[ Time : 0.546s | 15 Queries | GZIP : On ]

Торрент трекер RUTOR.IN, Не можете зайти на rutor.org? Какой новый адрес рутор? Какое зеркало рутор? Не работает rutor.org и зеркала? Тогда наш торрент специально для вас. Rutor.in неофициальное зеркало rutor. В случае если у Вас заблокирован rutor или вдруг Вы не можете на него зайти, то Вы без труда сможете скачать бесплатно и без рекламы последние новинки кино, игр, сериалов и прочего у нас, на Rutor.in. Не нужно использовать прокси, чтобы зайти на рутор, достаточно воспользоваться нашим ресурсом. Все новые фильмы, игры, сериалы, книги и музыка за 2013 и 2014 годы через торрент бесплатно. Скачивайте фильмы в хорошем качестве, игры для пк, xbox, playstation без регистрации. У нас вы найдете новые Зарубежные сериалы и Русские сериалы 2013, 2014, 2015 годов. Оставайтесь с нами, качайте любимые фильмы, игры, сериалы, книги и музыку.