img image001 image001 image001 image001 image001 image001 image001 image001 image001 image001 image001 image001 image001 image001 image001

Planets Sun Sun Sun
Статистика раздачи
Автор: Nickolas3434 | Размер: 4.59 ГБ | Добавлен: 11 июн 2014
Раздают: 240    Качают: 64
Скачать торрент
Скачать торрент
Описание торрента

СообщениеДобавлено: 11 июн 2014 

Информация о фильме
Оригинальное название: Белка и Стрелка: Лунные приключения
Год выхода: 2013
Жанр: Мультфильм, комедия, приключения, семейный, полнометражный
Режиссер: Александр Храмцов, Инна Евланникова, Вадим Сотсков
В ролях: Нонна Гришаева, Марьяна Спивак, Евгений Миронов, Тимур Родригез, Сергей Гармаш, Лев Аксельрод, Илья Храмцов, Стася Кудякова, Алексей Колган, Роман Квашнин

О фильме:
На Земле начали происходить странные и загадочные явления, несущие угрозу для планеты. Их след ведет в космос, на темную сторону Луны. Раскрыть тайну века поручили отряду Казбека. Белка, Стрелка и вся команда веселых и отважных героев отправляются на Луну, чтобы выполнить опасную миссию. Страсть к приключениям, искрометный юмор и великий дух космического братства поддержат в минуту великой опасности и помогут раскрыть всю правду о Луне и ее обитателях.



Страна: Россия, КиноАтис
Продолжительность: 01:12:03
Язык: Русский
Дата релиза: 10.06.2014

Файл
Кодек: H.264
Качество: BDRip (1080p)
Видео: MPEG-4 AVC, 8673 Кбит/с, 1920x1080
Звук: AC3, 6 ch, 448 Кбит/с

Общее
Уникальный идентификатор : 232149139504928243247807118842634388808 (0xAEA64C4560D0D1F2B426574B961B4548)
Полное имя : D:6Belka.i.Strelka.2014.x264.BDRip.(1080p).ExKinoRay.mkv
Формат : Matroska
Размер файла : 4,59 Гбайт
Продолжительность : 1 ч. 12 м.
Общий поток : 9123 Кбит/сек
Название фильма : Belka.i.Strelka.2014.x264.BDRip.(1080p).ExKinoRay
Дата кодирования : UTC 2014-06-10 20:21:15
Программа кодирования : mkvmerge v4.0.0 ('The Stars were mine') сборка от Jun 6 2010 16:18:42
Библиотека кодирования : libebml v1.0.0 + libmatroska v1.0.0

Видео
Идентификатор : 1
Формат : AVC
Формат/Информация : Advanced Video Codec
Профиль формата : High@L4.1
Параметр CABAC формата : Да
Параметр ReFrames формата : 4 кадра
Идентификатор кодека : V_MPEG4/ISO/AVC
Продолжительность : 1 ч. 12 м.
Битрейт : 8673 Кбит/сек
Ширина : 1920 пикс.
Высота : 1080 пикс.
Соотношение сторон : 16:9
Частота кадров : 25,000 кадр/сек
Цветовое пространство : YUV
Подвыборка цветности : 4:2:0
Битовая глубина : 8 бит
Тип развёртки : Прогрессивная
Бит/(Пиксели*Кадры) : 0.167
Размер потока : 4,27 Гбайт (93%)
Заголовок : Rip by Enigma-Vladislav71
Библиотека кодирования : x264 core 125 r2208 d9d2288
Настройки программы : cabac=1 / ref=4 / deblock=1:-3:-3 / analyse=0x3:0x133 / me=umh / subme=11 / psy=1 / psy_rd=1.00:0.00 / mixed_ref=1 / me_range=32 / chroma_me=1 / trellis=2 / 8x8dct=1 / cqm=0 / deadzone=21,11 / fast_pskip=0 / chroma_qp_offset=-2 / threads=3 / lookahead_threads=1 / sliced_threads=0 / nr=0 / decimate=0 / interlaced=0 / bluray_compat=0 / constrained_intra=0 / bframes=8 / b_pyramid=2 / b_adapt=2 / b_bias=0 / direct=3 / weightb=1 / open_gop=0 / weightp=2 / keyint=250 / keyint_min=25 / scenecut=40 / intra_refresh=0 / rc=2pass / mbtree=0 / bitrate=8673 / ratetol=1.0 / qcomp=0.60 / qpmin=10 / qpmax=51 / qpstep=4 / cplxblur=20.0 / qblur=0.5 / ip_ratio=1.40 / pb_ratio=1.30 / aq=1:1.00
Язык : English

Аудио
Идентификатор : 2
Формат : AC-3
Формат/Информация : Audio Coding 3
Расширение режима : CM (complete main)
Идентификатор кодека : A_AC3
Продолжительность : 1 ч. 12 м.
Вид битрейта : Постоянный
Битрейт : 448 Кбит/сек
Каналы : 6 каналов
Расположение каналов : Front: L C R, Side: L R, LFE
Частота : 48,0 КГц
Битовая глубина : 16 бит
Метод сжатия : С потерями
Размер потока : 231 Мбайт (5%)
Язык : Russian

Меню
00:00:00.000 : en:Chapter 01
00:08:29.079 : en:Chapter 02
00:19:27.760 : en:Chapter 03
00:29:54.480 : en:Chapter 04
00:38:40.120 : en:Chapter 05
00:49:07.480 : en:Chapter 06
00:56:04.960 : en:Chapter 07
01:04:31.760 : en:Chapter 08



Релиз от:

Авторы релиза:



   Похожие торренты   Торрент   Размер 
В этой теме нет новых непрочитанных сообщений. Белка и Стрелка: Лунные приключения (2013) BDRip-AVC от ExKinoRay

97 | 43

1.51 ГБ

В этой теме нет новых непрочитанных сообщений. Белка и Стрелка: Лунные приключения (2013) BDRip 1080p | Лицензия

990 | 177

3.88 ГБ

В этой теме нет новых непрочитанных сообщений. Белка и Стрелка: Лунные приключения (2013) WEB-DLRip-AVC от ExKinoRay

179 | 106

1.3 ГБ

В этой теме нет новых непрочитанных сообщений. Белка и Стрелка: Лунные приключения (2013) BDRip-HEVC 1080p от FREEISLAND

43 | 20

2.85 ГБ

В этой теме нет новых непрочитанных сообщений. Белка и Стрелка: Лунные приключения (2013) BDRemux 1080i от ExKinoRay

35 | 26

16.43 ГБ

В этой теме нет новых непрочитанных сообщений. Белка и Стрелка: Лунные приключения (2013) BDRip 720p

919 | 93

2.19 ГБ

В этой теме нет новых непрочитанных сообщений. Белка и Стрелка: Лунные приключения (2013) BDRip-AVC от R.G. HD-Films | 60 fps

102 | 25

3 ГБ




Вы не можете начинать темы
Вы не можете отвечать на сообщения
Вы не можете редактировать свои сообщения
Вы не можете удалять свои сообщения
Вы не можете добавлять вложения

Перейти:  
Для Мосгорсуда, Роскомнадзора и рекламодателей: mosgorsud-torrent[собачка]yandex.ru
 Вход
ppkBB3cker v.2 © 2008-2014 @ PPK
[ Time : 0.030s | 15 Queries | GZIP : Off ]

Торрент трекер RUTOR.IN, Не можете зайти на rutor.org? Какой новый адрес рутор? Какое зеркало рутор? Не работает rutor.org и зеркала? Тогда наш торрент специально для вас. Rutor.in неофициальное зеркало rutor. В случае если у Вас заблокирован rutor или вдруг Вы не можете на него зайти, то Вы без труда сможете скачать бесплатно и без рекламы последние новинки кино, игр, сериалов и прочего у нас, на Rutor.in. Не нужно использовать прокси, чтобы зайти на рутор, достаточно воспользоваться нашим ресурсом. Все новые фильмы, игры, сериалы, книги и музыка за 2013 и 2014 годы через торрент бесплатно. Скачивайте фильмы в хорошем качестве, игры для пк, xbox, playstation без регистрации. У нас вы найдете новые Зарубежные сериалы и Русские сериалы 2013, 2014, 2015 годов. Оставайтесь с нами, качайте любимые фильмы, игры, сериалы, книги и музыку.