img image001 image001 image001 image001 image001 image001 image001 image001 image001 image001 image001 image001 image001 image001 image001

Planets Sun Sun Sun
Статистика раздачи
Автор: Nickolas3434 | Размер: 4.36 ГБ | Добавлен: 13 июн 2014
Раздают: 34    Качают: 105
Скачать торрент
Скачать торрент
Описание торрента

СообщениеДобавлено: 13 июн 2014 

«Beware»



Страна: США
Год выпуска: 2013-2014
Киностудии: DC Entertainment, Warner Bros. Animation
Жанр: мультфильм, боевик
Продолжительность: ~ 21 минута / серия
Перевод: Профессиональный (Многоголосый закадровый)
Субтитры: русские
Оригинальная аудиодорожка: английский


Режиссер: Сэм Лью / Sam Liu, Рик Моралес / Rick Morales, Курт Геда / Curt Geda


Озвучивали: Энтони Руйвивар, Сумали Монтано, Джейби Бланк, Кертвуд Смит, Финола Хьюз, Тара Стронг, Уоллес Лэнгэм, Кристофер МакДональд, Мэттью Лиллард, Майкл-Леон Вули...

Описание: На Готэм опускается ночь, и Темный рыцарь заступает в дозор. Он обязан охранять город и жизни его жителей. С помощью своего дворецкого, бывшего секретного агента Альфреда и мечницы КатаныБэтмен ведет войну против злостных преступников. В представленных сериях Темный рыцарь сразится с новыми злодеями: Сорокой, Анархией, Профессором Пигом и Доктором Жабой.



Качество: DVDRip / 2 x DVD9 R5 от CP Дистрибуция
Формат: AVI

Видео: 720x400 (16:9), 25.000 fps, XviD ~ 1800 kbps avg, 0.250 bit/pixel
Аудио 1: 48 kHz, Dolby AC3 2.0 192 kbps, русский
Аудио 2: 48 kHz, Dolby AC3 2.0 192 kbps, английский
Формат субтитров: SoftSub (srt)

Релиз от:

Диск 1: Берегись Бэтмана. Тени Готэма, том 1
Эпизод 1: Жертва / Hunted, 13 июля 2013
Эпизод 2: Секреты / Secrets, 20 июля 2013
Эпизод 3: Испытания / Tests, 27 июля 2013
Эпизод 4: Безопасность / Safe, 3 августа 2013
Эпизод 5: Разбитый / Broken, 10 августа 2013
Эпизод 6: Отрава / Toxic, 17 августа 2013
Эпизод 7: Семья / Family, 7 сентября 2013
----------------------------------------------------

Диск 2: Берегись Бэтмана. Тени Готэма, том 2
Эпизод 8: Союзники / Allies, 14 сентября 2013
Эпизод 9: Надзор / Control, 21 сентября 2013
Эпизод 10: Жертва / Sacrifice, 28 сентября 2013
Эпизод 11: Чутье / Instinct, 5 октября 2013
Эпизод 12: Приманка / Attraction, 18 февраля 2014
Эпизод 13: Падение / Fall, 18 февраля 2014

Внимание! Раздача ведётся путём добавления новых серий; при каждом добавлении создаётся новый торрент-файл. Чтобы начать докачку новой серии, пользователям необходимо сделать следующее:
(1) остановить скачивание;
(2) удалить старый торрент-файл у себя из клиента (старые серии удалять не надо);
(3) скачать новый торрент-файл и запустить его у себя в клиенте вместо старого, при этом указать клиенту путь в старую папку куда и должно происходить скачивание новых серий.
Ваш клиент при этом должен произвести хеширование (проверку) старой папки (если он не производит проверку сам – помогите ему сделать это), и будет докачивать только те серии которых у вас ещё нет. Старые серии при этом не удаляются, а продолжают раздаваться!
Если вы уже удалили старые серии, то предотвратить повторную закачку старых серий можно, отжав галочку в соответствующих местах при запуске нового торрент-файла. Желательно старые серии не удалять как можно дольше, чтобы релизёр не столько продолжал раздавать старые серии, а смог сконцентрироваться на новых.

Общее
Полное имя : Beregis.Betmena.2013.P.DVDRip_[New-Tam]_by_avproh\01.Jertva.avi
Формат : AVI
Формат/Информация : Audio Video Interleave
Размер файла : 333 Мбайт
Продолжительность : 21 м.
Общий поток : 2216 Кбит/сек
Программа кодирования : VirtualDubModRus 1.5.10.2 (build 2542/release)
Библиотека кодирования : VirtualDubMod build 2542/release

Видео
Идентификатор : 0
Формат : MPEG-4 Visual
Профиль формата : Advanced Simple@L5
Параметр BVOP формата : 1
Параметр QPel формата : Нет
Параметр GMC формата : Без точки перехода
Параметр матрицы формата : Выборочная
Идентификатор кодека : XVID
Идентификатор кодека/Подсказка : XviD
Продолжительность : 21 м.
Битрейт : 1818 Кбит/сек
Ширина : 720 пикселей
Высота : 400 пикселей
Соотношение сторон : 16:9
Частота кадров : 25,000 кадров/сек
Цветовое пространство : YUV
Субдискретизация насыщенности : 4:2:0
Битовая глубина : 8 бит
Тип развёртки : Прогрессивная
Метод сжатия : С потерями
Бит/(Пиксели*Кадры) : 0.252
Размер потока : 273 Мбайт (82%)
Библиотека кодирования : XviD 73

Аудио #1
Идентификатор : 1
Формат : AC-3
Формат/Информация : Audio Coding 3
Расширение режима : CM (complete main)
Параметр Endianness формата : Big
Идентификатор кодека : 2000
Продолжительность : 21 м.
Вид битрейта : Постоянный
Битрейт : 192 Кбит/сек
Каналы : 2 канала
Расположение каналов : Front: L R
Частота : 48,0 КГц
Битовая глубина : 16 бит
Метод сжатия : С потерями
Размер потока : 28,9 Мбайт (9%)
Выравнивание : Разделение по промежуткам
Продолжительность промежутка : 40 мс. (1,00 видеокадр)
Время предзагрузки промежутка : 500 мс.

Аудио #2
Идентификатор : 2
Формат : AC-3
Формат/Информация : Audio Coding 3
Профиль формата : Dolby Digital
Расширение режима : CM (complete main)
Параметр Endianness формата : Big
Идентификатор кодека : 2000
Продолжительность : 21 м.
Вид битрейта : Постоянный
Битрейт : 192 Кбит/сек
Каналы : 2 канала
Расположение каналов : Front: L R
Частота : 48,0 КГц
Битовая глубина : 16 бит
Метод сжатия : С потерями
Размер потока : 28,9 Мбайт (9%)
Выравнивание : Разделение по промежуткам
Продолжительность промежутка : 40 мс. (1,00 видеокадр)
Время предзагрузки промежутка : 500 мс.





   Похожие торренты   Торрент   Размер 
В этой теме нет новых непрочитанных сообщений. Берегитесь Бэтмена / Beware the Batman [01x01-13 из 26] (2013-2014) DVDRip-AVC от New-Team | P | лицензия

30 | 26

4.2 ГБ

В этой теме нет новых непрочитанных сообщений. Берегитесь Бэтмена / Beware the Batman [S01x01-13] (2013-2014) 2xDVD9 от New-Team | P | Лицензия

10 | 47

10.96 ГБ

В этой теме нет новых непрочитанных сообщений. Берегитесь Бэтмена / Beware the Batman [01x01-19] (2013-2014) WEB-DL 1080p | L1

12 | 38

15.83 ГБ

В этой теме нет новых непрочитанных сообщений. Берегитесь Бэтмена / Beware the Batman [01x01-26 из 26] (2013-2014) WEB-DL 1080p | L1

159 | 43

21.41 ГБ

В этой теме нет новых непрочитанных сообщений. Берегитесь Бэтмена / Beware the Batman [01x01-18] (2013-2014) WEB-DL 1080p | L1

24 | 31

15.02 ГБ

В этой теме нет новых непрочитанных сообщений. Сын Бэтмена / Son of Batman (2014) HDRip | L

1225 | 143

1.37 ГБ

В этой теме нет новых непрочитанных сообщений. Остерегайсь: Бэтмен / Beware the Batman [S01x01-11] (2013) WEB-DL 1080p | L1

5 | 6

9.33 ГБ




Вы не можете начинать темы
Вы не можете отвечать на сообщения
Вы не можете редактировать свои сообщения
Вы не можете удалять свои сообщения
Вы не можете добавлять вложения

Перейти:  
Для Мосгорсуда, Роскомнадзора и рекламодателей: mosgorsud-torrent[собачка]yandex.ru
 Вход
ppkBB3cker v.2 © 2008-2014 @ PPK
[ Time : 0.043s | 16 Queries | GZIP : Off ]

Торрент трекер RUTOR.IN, Не можете зайти на rutor.org? Какой новый адрес рутор? Какое зеркало рутор? Не работает rutor.org и зеркала? Тогда наш торрент специально для вас. Rutor.in неофициальное зеркало rutor. В случае если у Вас заблокирован rutor или вдруг Вы не можете на него зайти, то Вы без труда сможете скачать бесплатно и без рекламы последние новинки кино, игр, сериалов и прочего у нас, на Rutor.in. Не нужно использовать прокси, чтобы зайти на рутор, достаточно воспользоваться нашим ресурсом. Все новые фильмы, игры, сериалы, книги и музыка за 2013 и 2014 годы через торрент бесплатно. Скачивайте фильмы в хорошем качестве, игры для пк, xbox, playstation без регистрации. У нас вы найдете новые Зарубежные сериалы и Русские сериалы 2013, 2014, 2015 годов. Оставайтесь с нами, качайте любимые фильмы, игры, сериалы, книги и музыку.
cron