img image001 image001 image001 image001 image001 image001 image001 image001 image001 image001 image001 image001 image001 image001 image001

Planets Sun Sun Sun
Статистика раздачи
Автор: Nickolas3434 | Размер: 4.2 ГБ | Добавлен: 14 июн 2014
Раздают: 30    Качают: 26
Скачать торрент
Скачать торрент
Описание торрента

СообщениеДобавлено: 14 июн 2014 

«Beware»



Страна: США
Год выпуска: 2013-2014
Киностудии: DC Entertainment, Warner Bros. Animation
Жанр: мультфильм, боевик
Продолжительность: ~ 21 минута / серия
Перевод: Профессиональный (Многоголосый закадровый)
Субтитры: русские
Оригинальная аудиодорожка: английский


Режиссер: Сэм Лью / Sam Liu, Рик Моралес / Rick Morales, Курт Геда / Curt Geda


Озвучивали: Энтони Руйвивар, Сумали Монтано, Джейби Бланк, Кертвуд Смит, Финола Хьюз, Тара Стронг, Уоллес Лэнгэм, Кристофер МакДональд, Мэттью Лиллард, Майкл-Леон Вули...

Описание: На Готэм опускается ночь, и Темный рыцарь заступает в дозор. Он обязан охранять город и жизни его жителей. С помощью своего дворецкого, бывшего секретного агента Альфреда и мечницы КатаныБэтмен ведет войну против злостных преступников. В представленных сериях Темный рыцарь сразится с новыми злодеями: Сорокой, Анархией, Профессором Пигом и Доктором Жабой.



Качество: DVDRip-AVC / 2 x DVD9 R5 от CP Дистрибуция
Формат: MKV

Видео: 720x572@1024x572 (16:9), 25.000 fps, MPEG-4 AVC ~ 1808 kbps avg, 0.176 bit/pixel
Аудио 1: 48 kHz, Dolby AC3 2.0 192 kbps, русский
Аудио 2: 48 kHz, Dolby AC3 2.0 192 kbps, английский
Формат субтитров: SoftSub (srt)

Релиз от:

Диск 1: Берегись Бэтмана. Тени Готэма, том 1
Эпизод 1: Жертва / Hunted, 13 июля 2013
Эпизод 2: Секреты / Secrets, 20 июля 2013
Эпизод 3: Испытания / Tests, 27 июля 2013
Эпизод 4: Безопасность / Safe, 3 августа 2013
Эпизод 5: Разбитый / Broken, 10 августа 2013
Эпизод 6: Отрава / Toxic, 17 августа 2013
Эпизод 7: Семья / Family, 7 сентября 2013
----------------------------------------------------

Диск 2: Берегись Бэтмана. Тени Готэма, том 2
Эпизод 8: Союзники / Allies, 14 сентября 2013
Эпизод 9: Надзор / Control, 21 сентября 2013
Эпизод 10: Жертва / Sacrifice, 28 сентября 2013
Эпизод 11: Чутье / Instinct, 5 октября 2013
Эпизод 12: Приманка / Attraction, 18 февраля 2014
Эпизод 13: Падение / Fall, 18 февраля 2014

Внимание! Раздача ведётся путём добавления новых серий; при каждом добавлении создаётся новый торрент-файл. Чтобы начать докачку новой серии, пользователям необходимо сделать следующее:
(1) остановить скачивание;
(2) удалить старый торрент-файл у себя из клиента (старые серии удалять не надо);
(3) скачать новый торрент-файл и запустить его у себя в клиенте вместо старого, при этом указать клиенту путь в старую папку куда и должно происходить скачивание новых серий.
Ваш клиент при этом должен произвести хеширование (проверку) старой папки (если он не производит проверку сам – помогите ему сделать это), и будет докачивать только те серии которых у вас ещё нет. Старые серии при этом не удаляются, а продолжают раздаваться!
Если вы уже удалили старые серии, то предотвратить повторную закачку старых серий можно, отжав галочку в соответствующих местах при запуске нового торрент-файла. Желательно старые серии не удалять как можно дольше, чтобы релизёр не столько продолжал раздавать старые серии, а смог сконцентрироваться на новых.

Общее
Полное имя : Beregis.Betmena.2013.P.DVDRip-AVC_[New-Tam]_by_avproh1.Jertva.mkv
Формат : Matroska
Версия формата : Version 4 / Version 2
Размер файла : 330 Мбайт
Продолжительность : 21 м.
Общий поток : 2193 Кбит/сек
Дата кодирования : UTC 2014-06-13 06:29:50
Программа кодирования : mkvmerge v7.0.0 ('Where We Going') 64bit built on Jun 9 2014 15:16:27
Библиотека кодирования : libebml v1.3.0 + libmatroska v1.4.1
DURATION : 00:20:07.238000000
NUMBER_OF_FRAMES : 217
NUMBER_OF_BYTES : 14958
_STATISTICS_WRITING_APP : mkvmerge v7.0.0 ('Where We Going') 64bit built on Jun 9 2014 15:16:27
_STATISTICS_WRITING_DATE_UTC : 2014-06-13 06:29:50
_STATISTICS_TAGS : BPS DURATION NUMBER_OF_FRAMES NUMBER_OF_BYTES

Видео
Идентификатор : 1
Формат : AVC
Формат/Информация : Advanced Video Codec
Профиль формата : High@L4.1
Параметр CABAC формата : Да
Параметр ReFrames формата : 8 кадров
Идентификатор кодека : V_MPEG4/ISO/AVC
Продолжительность : 21 м.
Битрейт : 1808 Кбит/сек
Ширина : 720 пикселей
Высота : 572 пикселя
Соотношение сторон : 16:9
Режим частоты кадров : Постоянный
Частота кадров : 25,000 кадров/сек
Цветовое пространство : YUV
Субдискретизация насыщенности : 4:2:0
Битовая глубина : 8 бит
Тип развёртки : Прогрессивная
Бит/(Пиксели*Кадры) : 0.176
Размер потока : 265 Мбайт (80%)
Библиотека кодирования : x264 core 138 r2356 a1d3d17
Настройки программы : cabac=1 / ref=8 / deblock=1:-2:-1 / analyse=0x3:0x113 / me=umh / subme=10 / psy=1 / psy_rd=1.00:0.05 / mixed_ref=1 / me_range=32 / chroma_me=1 / trellis=2 / 8x8dct=1 / cqm=0 / deadzone=21,11 / fast_pskip=0 / chroma_qp_offset=-3 / threads=9 / lookahead_threads=1 / sliced_threads=0 / nr=0 / decimate=0 / interlaced=0 / bluray_compat=0 / constrained_intra=0 / bframes=8 / b_pyramid=2 / b_adapt=2 / b_bias=0 / direct=3 / weightb=1 / open_gop=0 / weightp=2 / keyint=250 / keyint_min=25 / scenecut=40 / intra_refresh=0 / rc=2pass / mbtree=0 / bitrate=1808 / ratetol=1.0 / qcomp=0.60 / qpmin=0 / qpmax=69 / qpstep=4 / cplxblur=20.0 / qblur=0.5 / ip_ratio=1.40 / pb_ratio=1.30 / aq=1:1.00
Язык : English
Default : Да
Forced : Нет
DURATION : 00:21:01.040000000
NUMBER_OF_FRAMES : 31526
NUMBER_OF_BYTES : 284729079
_STATISTICS_WRITING_APP : mkvmerge v7.0.0 ('Where We Going') 64bit built on Jun 9 2014 15:16:27
_STATISTICS_WRITING_DATE_UTC : 2014-06-13 06:29:50
_STATISTICS_TAGS : BPS DURATION NUMBER_OF_FRAMES NUMBER_OF_BYTES

Аудио #1
Идентификатор : 2
Формат : AC-3
Формат/Информация : Audio Coding 3
Расширение режима : CM (complete main)
Параметр Endianness формата : Big
Идентификатор кодека : A_AC3
Продолжительность : 21 м.
Вид битрейта : Постоянный
Битрейт : 192 Кбит/сек
Каналы : 2 канала
Расположение каналов : Front: L R
Частота : 48,0 КГц
Битовая глубина : 16 бит
Метод сжатия : С потерями
Размер потока : 28,9 Мбайт (9%)
Язык : Russian
Default : Да
Forced : Нет

Аудио #2
Идентификатор : 3
Формат : AC-3
Формат/Информация : Audio Coding 3
Профиль формата : Dolby Digital
Расширение режима : CM (complete main)
Параметр Endianness формата : Big
Идентификатор кодека : A_AC3
Продолжительность : 21 м.
Вид битрейта : Постоянный
Битрейт : 192 Кбит/сек
Каналы : 2 канала
Расположение каналов : Front: L R
Частота : 48,0 КГц
Битовая глубина : 16 бит
Метод сжатия : С потерями
Размер потока : 28,9 Мбайт (9%)
Язык : English
Default : Нет
Forced : Нет

Текст
Идентификатор : 4
Формат : UTF-8
Идентификатор кодека : S_TEXT/UTF8
Идентификатор кодека/Информация : UTF-8 Plain Text
Язык : Russian
Default : Нет
Forced : Нет





   Похожие торренты   Торрент   Размер 
В этой теме нет новых непрочитанных сообщений. Берегитесь Бэтмена / Beware the Batman [01x01-13 из 26] (2013-2014) DVDRip от New-Team | P | лицензия

25 | 66

4.36 ГБ

В этой теме нет новых непрочитанных сообщений. Берегитесь Бэтмена / Beware the Batman [S01x01-13] (2013-2014) 2xDVD9 от New-Team | P | Лицензия

10 | 47

10.96 ГБ

В этой теме нет новых непрочитанных сообщений. Берегитесь Бэтмена / Beware the Batman [01x01-19] (2013-2014) WEB-DL 1080p | L1

12 | 38

15.83 ГБ

В этой теме нет новых непрочитанных сообщений. Берегитесь Бэтмена / Beware the Batman [01x01-18] (2013-2014) WEB-DL 1080p | L1

24 | 31

15.02 ГБ

В этой теме нет новых непрочитанных сообщений. Берегитесь Бэтмена / Beware the Batman [01x01-26 из 26] (2013-2014) WEB-DL 1080p | L1

159 | 43

21.41 ГБ

В этой теме нет новых непрочитанных сообщений. Сын Бэтмена / Son of Batman (2014) HDRip | L

1225 | 143

1.37 ГБ

В этой теме нет новых непрочитанных сообщений. Сын Бэтмена / Son of Batman (2014) BDRip-AVC от potroks | L

143 | 9

1.33 ГБ




Вы не можете начинать темы
Вы не можете отвечать на сообщения
Вы не можете редактировать свои сообщения
Вы не можете удалять свои сообщения
Вы не можете добавлять вложения

Перейти:  
Для Мосгорсуда, Роскомнадзора и рекламодателей: mosgorsud-torrent[собачка]yandex.ru
 Вход
ppkBB3cker v.2 © 2008-2014 @ PPK
[ Time : 0.050s | 14 Queries | GZIP : Off ]

Торрент трекер RUTOR.IN, Не можете зайти на rutor.org? Какой новый адрес рутор? Какое зеркало рутор? Не работает rutor.org и зеркала? Тогда наш торрент специально для вас. Rutor.in неофициальное зеркало rutor. В случае если у Вас заблокирован rutor или вдруг Вы не можете на него зайти, то Вы без труда сможете скачать бесплатно и без рекламы последние новинки кино, игр, сериалов и прочего у нас, на Rutor.in. Не нужно использовать прокси, чтобы зайти на рутор, достаточно воспользоваться нашим ресурсом. Все новые фильмы, игры, сериалы, книги и музыка за 2013 и 2014 годы через торрент бесплатно. Скачивайте фильмы в хорошем качестве, игры для пк, xbox, playstation без регистрации. У нас вы найдете новые Зарубежные сериалы и Русские сериалы 2013, 2014, 2015 годов. Оставайтесь с нами, качайте любимые фильмы, игры, сериалы, книги и музыку.