img image001 image001 image001 image001 image001 image001 image001 image001 image001 image001 image001 image001 image001 image001 image001

Planets Sun Sun Sun
Статистика раздачи
Автор: Nickolas3434 | Размер: 2.3 ГБ | Добавлен: 14 июн 2014
Раздают: 9    Качают: 3
Скачать торрент
Скачать торрент
Описание торрента

СообщениеДобавлено: 14 июн 2014 

Информация о фильме
Название: Лего. Фильм
Оригинальное название: The Lego Movie
Год выпуска: 2014
Жанр: Мультфильм, боевик, комедия
Выпущено: США, Animal Logic, LEGO, Lin Pictures, Vertigo Entertainment, Village Roadshow Pictures, Warner Bros. Pictures
Режиссер: Фил Лорд, Крис Миллер, Крис МакКэй
В ролях: Уилл Феррелл, Лиам Нисон, Элисон Бри, Морган Фримен, Элизабет Бэнкс, Крис Прэтт, Уилл Арнетт, Ник Офферман, Джэдон Сэнд

О фильме: Эммет – обычная лего-фигурка, живущая по инструкциям в замечательном Кирпич-граде. Он всегда всем доволен и со всеми соглашается. Все самое интересное начинается, когда Эммет внезапно становится Избранным…
И ему приходится присоединиться к походу против злого лего-диктатора Лорда Бизнеса, который планирует уничтожить творчество во Вселенной!



Файл
Качество: HDRip (AVC)
Видео: MPEG-4 AVC, 2444 Кбит/с, 1024x426
Аудио: Русский (AC3, 6 ch, 448 Кбит/с), английский (AC3, 6 ch, 384 Кбит/с)
Продолжительность: 01:40:35
Перевод: Дублированный [Лицензия]
Субтитры: Русские, украинские, английские

General
Unique ID : 221961398182682317957654459031956260817 (0xA6FC35D7E985A4BD97EE56886EC087D1)
Complete name : C:Lego.Film.2014.D.HDRip.AVC.ExKinoRay (1).mkv
Format : Matroska
Format version : Version 2
File size : 2.30 GiB
Duration : 1h 40mn
Overall bit rate : 3 278 Kbps
Movie name : Lego from ExKinoRay
Encoded date : UTC 2014-06-13 13:17:38
Writing application : mkvmerge v4.9.1 ('Ich will') built on Jul 11 2011 23:53:15
Writing library : libebml v1.2.1 + libmatroska v1.1.1

Video
ID : 1
Format : AVC
Format/Info : Advanced Video Codec
Format profile : High@L4.1
Format settings, CABAC : Yes
Format settings, ReFrames : 9 frames
Codec ID : V_MPEG4/ISO/AVC
Duration : 1h 40mn
Bit rate : 2 444 Kbps
Width : 1 024 pixels
Height : 426 pixels
Display aspect ratio : 2.40:1
Frame rate mode : Constant
Frame rate : 23.976 fps
Color space : YUV
Chroma subsampling : 4:2:0
Bit depth : 8 bits
Scan type : Progressive
Bits/(Pixel*Frame) : 0.234
Stream size : 1.67 GiB (73%)
Title : Enigma-Vladislav71
Writing library : x264 core 116 r2044 392e762
Encoding settings : cabac=1 / ref=9 / deblock=1:-2:-2 / analyse=0x3:0x113 / me=umh / subme=10 / psy=1 / psy_rd=1.00:0.20 / mixed_ref=1 / me_range=32 / chroma_me=1 / trellis=2 / 8x8dct=1 / cqm=0 / deadzone=21,11 / fast_pskip=0 / chroma_qp_offset=-3 / threads=12 / sliced_threads=0 / nr=0 / decimate=0 / interlaced=0 / bluray_compat=0 / constrained_intra=0 / bframes=8 / b_pyramid=2 / b_adapt=2 / b_bias=0 / direct=3 / weightb=1 / open_gop=0 / weightp=2 / keyint=240 / keyint_min=23 / scenecut=40 / intra_refresh=0 / rc=2pass / mbtree=0 / bitrate=2444 / ratetol=1.0 / qcomp=0.60 / qpmin=0 / qpmax=69 / qpstep=4 / cplxblur=20.0 / qblur=0.5 / ip_ratio=1.40 / pb_ratio=1.30 / aq=1:1.00
Default : Yes
Forced : No

Audio #1
ID : 2
Format : AC-3
Format/Info : Audio Coding 3
Mode extension : CM (complete main)
Format settings, Endianness : Big
Codec ID : A_AC3
Duration : 1h 40mn
Bit rate mode : Constant
Bit rate : 448 Kbps
Channel(s) : 6 channels
Channel positions : Front: L C R, Side: L R, LFE
Sampling rate : 48.0 KHz
Bit depth : 16 bits
Compression mode : Lossy
Stream size : 322 MiB (14%)
Title : Dub - BD CEE
Language : Russian
Default : Yes
Forced : No

Audio #2
ID : 3
Format : AC-3
Format/Info : Audio Coding 3
Mode extension : CM (complete main)
Format settings, Endianness : Big
Codec ID : A_AC3
Duration : 1h 40mn
Bit rate mode : Constant
Bit rate : 384 Kbps
Channel(s) : 6 channels
Channel positions : Front: L C R, Side: L R, LFE
Sampling rate : 48.0 KHz
Bit depth : 16 bits
Compression mode : Lossy
Stream size : 276 MiB (12%)
Language : English
Default : No
Forced : No

Text #1
ID : 4
Format : UTF-8
Codec ID : S_TEXT/UTF8
Codec ID/Info : UTF-8 Plain Text
Title : FORCED
Language : Russian
Default : No
Forced : No

Text #2
ID : 5
Format : UTF-8
Codec ID : S_TEXT/UTF8
Codec ID/Info : UTF-8 Plain Text
Title : FULL
Language : Russian
Default : No
Forced : No

Text #3
ID : 6
Format : UTF-8
Codec ID : S_TEXT/UTF8
Codec ID/Info : UTF-8 Plain Text
Title : FORCED
Language : Ukrainian
Default : No
Forced : No

Text #4
ID : 7
Format : UTF-8
Codec ID : S_TEXT/UTF8
Codec ID/Info : UTF-8 Plain Text
Title : FULL
Language : Ukrainian
Default : No
Forced : No

Text #5
ID : 8
Format : UTF-8
Codec ID : S_TEXT/UTF8
Codec ID/Info : UTF-8 Plain Text
Title : Full
Language : English
Default : No
Forced : No

Text #6
ID : 9
Format : UTF-8
Codec ID : S_TEXT/UTF8
Codec ID/Info : UTF-8 Plain Text
Title : SDH
Language : English
Default : No
Forced : No

Text #7
ID : 10
Format : UTF-8
Codec ID : S_TEXT/UTF8
Codec ID/Info : UTF-8 Plain Text
Title : SDH-Colored
Language : English
Default : No
Forced : No

Menu
00:00:00.000 : en:(01)00:00:00:000
00:09:44.040 : en:(02)00:09:44:040
00:18:18.387 : en:(03)00:18:18:387
00:29:50.747 : en:(04)00:29:50:747
00:38:48.034 : en:(05)00:38:48:034
00:48:45.047 : en:(06)00:48:45:047
00:57:49.423 : en:(07)00:57:49:423
01:06:05.251 : en:(08)01:06:05:251
01:16:24.203 : en:(09)01:16:24:203
01:25:56.149 : en:(10)01:25:56:149
01:32:57.320 : en:(11)01:32:57:320
01:40:35.069 : en:(12)01:40:35:069





Релиз от:

Авторы релиза:



   Похожие торренты   Торрент   Размер 
В этой теме нет новых непрочитанных сообщений. Лего. Фильм / The Lego Movie (2014) BDRip-AVC от ExKinoRay | Лицензия

279 | 11

2.18 ГБ

В этой теме нет новых непрочитанных сообщений. Лего. Фильм / The Lego Movie (2014) HDRip-AVC от ExKinoRay | iTunes

366 | 28

2.26 ГБ

В этой теме нет новых непрочитанных сообщений. Лего. Фильм / The Lego Movie (2014) HDRip | Лицензия

774 | 42

2.05 ГБ

В этой теме нет новых непрочитанных сообщений. Лего. Фильм / The Lego Movie (2014) HDRip | Лицензия

1712 | 68

1.47 ГБ

В этой теме нет новых непрочитанных сообщений. Лего. Фильм / The Lego Movie (2014) HDRip-AVC от RG WazZzuP |Лицензия

68 | 5

745.64 МБ

В этой теме нет новых непрочитанных сообщений. Лего. Фильм / The Lego Movie (2014) HDRip от Generalfilm | КПК | Лицензия

136 | 6

345.06 МБ

В этой теме нет новых непрочитанных сообщений. Лего. Фильм / The Lego Movie (2014) WEB-DLRip-AVC от ExKinoRay | iTunes

308 | 10

1.93 ГБ




Вы не можете начинать темы
Вы не можете отвечать на сообщения
Вы не можете редактировать свои сообщения
Вы не можете удалять свои сообщения
Вы не можете добавлять вложения

Перейти:  
Для Мосгорсуда, Роскомнадзора и рекламодателей: mosgorsud-torrent[собачка]yandex.ru
 Вход
ppkBB3cker v.2 © 2008-2014 @ PPK
[ Time : 0.042s | 15 Queries | GZIP : On ]

Торрент трекер RUTOR.IN, Не можете зайти на rutor.org? Какой новый адрес рутор? Какое зеркало рутор? Не работает rutor.org и зеркала? Тогда наш торрент специально для вас. Rutor.in неофициальное зеркало rutor. В случае если у Вас заблокирован rutor или вдруг Вы не можете на него зайти, то Вы без труда сможете скачать бесплатно и без рекламы последние новинки кино, игр, сериалов и прочего у нас, на Rutor.in. Не нужно использовать прокси, чтобы зайти на рутор, достаточно воспользоваться нашим ресурсом. Все новые фильмы, игры, сериалы, книги и музыка за 2013 и 2014 годы через торрент бесплатно. Скачивайте фильмы в хорошем качестве, игры для пк, xbox, playstation без регистрации. У нас вы найдете новые Зарубежные сериалы и Русские сериалы 2013, 2014, 2015 годов. Оставайтесь с нами, качайте любимые фильмы, игры, сериалы, книги и музыку.