img image001 image001 image001 image001 image001 image001 image001 image001 image001 image001 image001 image001 image001 image001 image001

Planets Sun Sun Sun
Статистика раздачи
Автор: Nickolas3434 | Размер: 4.37 ГБ | Добавлен: 16 июн 2014
Раздают: 607    Качают: 28
Скачать торрент
Скачать торрент
Описание торрента

СообщениеДобавлено: 16 июн 2014 

Информация о фильме
Название: Русалочка
Оригинальное название: The Little Mermaid
Год выхода: 1989
Жанр: мультфильм, мюзикл, фэнтези, мелодрама, семейный
Режиссер: Рон Клементс, Джон Маскер
В ролях: Джоди Бенсон, Пэт Кэрролл, Рене Обержонуа, Кристофер Дэниэл Барнс, Пэдди Эдвардс, Бадди Хэкетт, Джейсон Марин, Кеннет Марс, Эди МакКлёрг, Уилл Райан

О фильме:
Таинственные глубины моря хранят немало тайн, а обитатели океана могут рассказать множество удивительных историй. И самой невероятной из них была и остаётся история русалочки Ариэль. Дочь могущественного царя подводного мира Тритона, она однажды влюбляется в прекрасного и мужественного принца. Но разве они могут быть вместе - земной человек и морская дева? Однако настоящие чувства преодолевают любые преграды. Ради своей любви Ариэль готова пойти на всё. Даже если для обретения своего счастья ей навсегда придётся покинуть родной океан и навеки стать земной девушкой...



Выпущено: США
Студия: Walt Disney Pictures, Silver Screen Partners IV
Продолжительность: 01:22:48
Перевод: Дублированный + Оригинал

Файл
Кодек: x264
Качество: BDRip (источник: Blu-ray Disc)
Видео: 1280x720 (1,78:1), 23.976 fps, 6663 kbps
Аудио #1: AC-3, 6 ch, 448 kbps (Rus)
Аудио #2: AC-3, 6 ch, 448 kbps (Eng)
Субтитры: Русские (Forced), Русские, Английские
Скачать: семпл

Общее
Уникальный идентификатор : 180408395875833408089295314596817003026 (0x87B964A7AE68FD7E85F4CBE64207E212)
Полное имя : E:The.Little.Mermaid.1989.BDRip.720p.Rus.Eng.mkv
Формат : Matroska
Версия формата : Version 4 / Version 2
Размер файла : 4,37 Гбайт
Продолжительность : 1 ч. 22 м.
Общий поток : 7557 Кбит/сек
Название фильма : Русалочка / The Little Mermaid (1989)
Дата кодирования : UTC 2013-08-28 13:28:13
Программа кодирования : mkvmerge v6.3.0 ('You can't stop me!') built on Jun 28 2013 20:09:41
Библиотека кодирования : libebml v1.3.0 + libmatroska v1.4.0

Видео
Идентификатор : 1
Формат : AVC
Формат/Информация : Advanced Video Codec
Профиль формата : High@L4.1
Параметр CABAC формата : Да
Параметр ReFrames формата : 9 кадров
Идентификатор кодека : V_MPEG4/ISO/AVC
Продолжительность : 1 ч. 22 м.
Битрейт : 6663 Кбит/сек
Ширина : 1280 пикселей
Высота : 720 пикселей
Соотношение сторон : 16:9
Режим частоты кадров : Постоянный
Частота кадров : 23,976 кадра/сек
Цветовое пространство : YUV
Субдискретизация насыщенности : 4:2:0
Битовая глубина : 8 бит
Тип развёртки : Прогрессивная
Бит/(Пиксели*Кадры) : 0.302
Размер потока : 3,77 Гбайт (86%)
Заголовок : Release by N1NT3NDO
Библиотека кодирования : x264 core 138 r2358 9e941d1
Настройки программы : cabac=1 / ref=9 / deblock=1:-3:-3 / analyse=0x3:0x133 / me=umh / subme=11 / psy=1 / psy_rd=1.00:0.00 / mixed_ref=1 / me_range=32 / chroma_me=1 / trellis=2 / 8x8dct=1 / cqm=0 / deadzone=21,11 / fast_pskip=0 / chroma_qp_offset=-2 / threads=12 / lookahead_threads=1 / sliced_threads=0 / nr=0 / decimate=0 / interlaced=0 / bluray_compat=0 / constrained_intra=0 / bframes=6 / b_pyramid=2 / b_adapt=2 / b_bias=0 / direct=3 / weightb=1 / open_gop=0 / weightp=2 / keyint=240 / keyint_min=23 / scenecut=40 / intra_refresh=0 / rc_lookahead=80 / rc=2pass / mbtree=0 / bitrate=6663 / ratetol=1.0 / qcomp=0.60 / qpmin=0 / qpmax=69 / qpstep=4 / cplxblur=20.0 / qblur=0.5 / vbv_maxrate=50000 / vbv_bufsize=62500 / nal_hrd=none / ip_ratio=1.40 / pb_ratio=1.30 / aq=1:0.90
Язык : English
Default : Да
Forced : Нет

Аудио #1
Идентификатор : 2
Формат : AC-3
Формат/Информация : Audio Coding 3
Расширение режима : CM (complete main)
Параметр Endianness формата : Big
Идентификатор кодека : A_AC3
Продолжительность : 1 ч. 22 м.
Вид битрейта : Постоянный
Битрейт : 448 Кбит/сек
Каналы : 6 каналов
Расположение каналов : Front: L C R, Side: L R, LFE
Частота : 48,0 КГц
Битовая глубина : 16 бит
Метод сжатия : С потерями
Размер потока : 265 Мбайт (6%)
Заголовок : Rus
Язык : Russian
Default : Да
Forced : Нет

Аудио #2
Идентификатор : 3
Формат : AC-3
Формат/Информация : Audio Coding 3
Расширение режима : CM (complete main)
Параметр Endianness формата : Big
Идентификатор кодека : A_AC3
Продолжительность : 1 ч. 22 м.
Вид битрейта : Постоянный
Битрейт : 448 Кбит/сек
Каналы : 6 каналов
Расположение каналов : Front: L C R, Side: L R, LFE
Частота : 48,0 КГц
Битовая глубина : 16 бит
Метод сжатия : С потерями
Размер потока : 265 Мбайт (6%)
Заголовок : Eng
Язык : English
Default : Нет
Forced : Нет

Текст #1
Идентификатор : 4
Формат : UTF-8
Идентификатор кодека : S_TEXT/UTF8
Идентификатор кодека/Информация : UTF-8 Plain Text
Заголовок : Rus (Forced)
Язык : Russian
Default : Нет
Forced : Нет

Текст #2
Идентификатор : 5
Формат : UTF-8
Идентификатор кодека : S_TEXT/UTF8
Идентификатор кодека/Информация : UTF-8 Plain Text
Заголовок : Rus (Forced) Songs
Язык : Russian
Default : Нет
Forced : Нет

Текст #3
Идентификатор : 6
Формат : UTF-8
Идентификатор кодека : S_TEXT/UTF8
Идентификатор кодека/Информация : UTF-8 Plain Text
Заголовок : Rus
Язык : Russian
Default : Нет
Forced : Нет

Текст #4
Идентификатор : 7
Формат : UTF-8
Идентификатор кодека : S_TEXT/UTF8
Идентификатор кодека/Информация : UTF-8 Plain Text
Заголовок : Eng (Forced)
Язык : English
Default : Нет
Forced : Нет

Текст #5
Идентификатор : 8
Формат : UTF-8
Идентификатор кодека : S_TEXT/UTF8
Идентификатор кодека/Информация : UTF-8 Plain Text
Заголовок : Eng
Язык : English
Default : Нет
Forced : Нет

Меню
00:00:00.000 : :Chapter 01
00:02:17.846 : :Chapter 02
00:03:47.185 : :Chapter 03
00:05:51.642 : :Chapter 04
00:08:56.035 : :Chapter 05
00:10:48.981 : :Chapter 06
00:15:01.358 : :Chapter 07
00:19:04.685 : :Chapter 08
00:22:18.462 : :Chapter 09
00:25:15.722 : :Chapter 10
00:29:06.244 : :Chapter 11
00:32:56.057 : :Chapter 12
00:34:21.476 : :Chapter 13
00:38:49.160 : :Chapter 14
00:40:00.689 : :Chapter 15
00:41:38.412 : :Chapter 16
00:45:42.614 : :Chapter 17
00:50:57.054 : :Chapter 18
00:52:22.556 : :Chapter 19
00:57:21.771 : :Chapter 20
00:59:35.947 : :Chapter 21
01:02:29.203 : :Chapter 22
01:05:45.650 : :Chapter 23
01:10:04.742 : :Chapter 24
01:12:48.739 : :Chapter 25
01:15:33.153 : :Chapter 26
01:18:19.403 : :Chapter 27
x264 [info]: frame I:961 Avg QP:15.30 size:140441
x264 [info]: frame P:33698 Avg QP:18.41 size: 58773
x264 [info]: frame B:84471 Avg QP:19.87 size: 23918



   Похожие торренты   Торрент   Размер 
В этой теме нет новых непрочитанных сообщений. Русалочка / The Little Mermaid (1989) BDRip 720p от HQ-ViDEO

201 | 27

7.97 ГБ

В этой теме нет новых непрочитанных сообщений. Русалочка / The Little Mermaid (1989) BDRip 720p от Leonardo and Scarabey | Лицензия

1010 | 33

4.52 ГБ

В этой теме нет новых непрочитанных сообщений. Русалочка / The Little Mermaid (1989) HDTVRip 720p от FLINTFILMS

31 | 3

2.18 ГБ

В этой теме нет новых непрочитанных сообщений. Русалочка / The Little Mermaid (1989) BDRip-AVC от MediaClub | D, P2, A

11 | 2

3.4 ГБ

В этой теме нет новых непрочитанных сообщений. Русалочка / The Little Mermaid (1989) BDRip | Дополнительные материалы

25 | 21

5.42 ГБ

В этой теме нет новых непрочитанных сообщений. Русалочка / The Little Mermaid (1989) BDRip 1080p от HDClub | 3D-Video | HOU | D, P2, A | Лицензия

242 | 20

13.05 ГБ

В этой теме нет новых непрочитанных сообщений. Русалочка / The Little Mermaid (1989) HDRip от Scarabey | D

462 | 49

743.35 МБ




Вы не можете начинать темы
Вы не можете отвечать на сообщения
Вы не можете редактировать свои сообщения
Вы не можете удалять свои сообщения
Вы не можете добавлять вложения

Перейти:  
Для Мосгорсуда, Роскомнадзора и рекламодателей: mosgorsud-torrent[собачка]yandex.ru
 Вход
ppkBB3cker v.2 © 2008-2014 @ PPK
[ Time : 0.022s | 14 Queries | GZIP : Off ]
CGP output time : 0.032s | 5 Queries | GZIP : Off

Торрент трекер RUTOR.IN, Не можете зайти на rutor.org? Какой новый адрес рутор? Какое зеркало рутор? Не работает rutor.org и зеркала? Тогда наш торрент специально для вас. Rutor.in неофициальное зеркало rutor. В случае если у Вас заблокирован rutor или вдруг Вы не можете на него зайти, то Вы без труда сможете скачать бесплатно и без рекламы последние новинки кино, игр, сериалов и прочего у нас, на Rutor.in. Не нужно использовать прокси, чтобы зайти на рутор, достаточно воспользоваться нашим ресурсом. Все новые фильмы, игры, сериалы, книги и музыка за 2013 и 2014 годы через торрент бесплатно. Скачивайте фильмы в хорошем качестве, игры для пк, xbox, playstation без регистрации. У нас вы найдете новые Зарубежные сериалы и Русские сериалы 2013, 2014, 2015 годов. Оставайтесь с нами, качайте любимые фильмы, игры, сериалы, книги и музыку.