img image001 image001 image001 image001 image001 image001 image001 image001 image001 image001 image001 image001 image001 image001 image001

Planets Sun Sun Sun
Статистика раздачи
Автор: Nickolas3434 | Размер: 6.66 ГБ | Добавлен: 16 июн 2014
Раздают: 279    Качают: 100
Скачать торрент
Скачать торрент
Описание торрента

СообщениеДобавлено: 16 июн 2014 

Информация о фильме
Название: София Прекрасная
Оригинальное название: Sofia the First
Год выхода: 2012
Жанр: мультфильм, фэнтези, семейный
Режиссер: Джэми Митчелл, Сэм Ригел, Ларри Лэйчлитер
В ролях: Эриэл Винтер, Сара Рамирез, Джим Каммингс, Уэйн Брэди, Дарси Роуз Барнс, Зак Каллисон, Джесс Харнелл, Дженнифер Хейл, Трэвис Виллингхем

О фильме:
Маленькая девочка, которая скоро станет принцессой, снова приглашает в гости своих лучших друзей! Тебя ждут музыка, веселье и волшебство!
Какая девочка не мечтает однажды проснуться принцессой! И прежде чем София сможет занять законное место на троне, вас ждут удивительные приключения: представление в зачарованном цирке, знакомство с ручным дракончиком и полет на волшебном ковре-самолете вместе с Софией и Эмбер! Но когда маленькие верные друзья сбиваются с пути в лазурной вышине, на помощь к ним приходит особый гость - принцесса Жасмин, которая расскажет всем маленьким принцессам, как не бояться приключений, быть сильной и верить в себя. Чудесные песни, незабываемые герои и замечательные сюрпризы.
"София Прекрасная: Как стать принцессой" открывает дверь в дивный мир, полный доброты, взаимовыручки и дружбы!

01. Всего лишь один из принцев / Just One of the Princes
02. Веселимся до утра / The Big Sleepover
03. Веселимся вместе с троллями / Let the Good Times Troll
04. Подмастерье Седрика / Cedric's Apprentice
05. Провинились по королевски / A Royal Mess
06. Застенчивая принцесса / The Shy Princess
07. Кролик чемпион / Blue Ribbon Bunny
08. Экзамен для принцесс / The Princess Test
09. У Бельвика выходной / Baileywick's Day Off
10. Пикник трех Королевств / The Tri-Kingdom Picnic
11. Маленькая ведьма / The Little Witch
12. Вдвоём в Тангу / Two to Tangu
13. В поиске Клевера / Finding Clover
14. Волшебный амулет Авалора / The amulet of Avalor
15. Команда Лютиков / The Buttercups
16. Дорогу Мисс Крапиве / Make Way for Miss Nettle
17. Гимн и Амулет / The Amulet and the Anthem
18. Чайный пир на весь мир / Tea for Too Many
19. Принцесса-бабочка / Princess Butterfly
20. Удачное тёте-шествие / Great Aunt-Venture
21. Король - пекарь / The Baker King
22. Плавучий дворец / The Floating Palace
23. Праздник в Волшебнии / Holiday in Enchancia
24. Четвертый лишний / Fours a Crowd

Официальный сайт

Страна: США
Студия: Disney Television Animation, Walt Disney Productions
Продолжительность: ~00:22:00 серия
Перевод: Дублированный, включая и песни (Невафильм)

Файл
Кодек: x264 / AC3
Качество: WEBDLRip-AVC
Видео: AVC, 768x432 (16:9), 23.976 fps, 1 485 Kbps (0.187 bit/pixel)
Звук: AC-3, 48.0 KHz, 2 ch, 192 Kbps, CBR (Russian)

General
Unique ID : 223082106829169733225598354747537618334 (0xA7D40D0BB5BC9406A832B52AA0A9F59E)
Complete name : /София Прекрасная. Как стать принцессой - Sofia the First (2013) WEB-DLRip/Sofia the First S01E01 Just One of the Princes.mkv
Format : Matroska
Format version : Version 2
File size : 281 MiB
Duration : 23mn 25s
Overall bit rate : 1 679 Kbps
Movie name : Sofia the First S01E01 Just One of the Princes
Encoded date : UTC 2014-02-21 23:27:46
Writing application : mkvmerge v4.9.1 ('Ich will') built on Sep 21 2011 17:48:11
Writing library : libebml v1.2.1 + libmatroska v1.2.0
Attachment : Yes

Video
ID : 1
Format : AVC
Format/Info : Advanced Video Codec
Format profile : High@L4.1
Format settings, CABAC : Yes
Format settings, ReFrames : 8 frames
Codec ID : V_MPEG4/ISO/AVC
Duration : 23mn 25s
Bit rate : 1 485 Kbps
Width : 768 pixels
Height : 432 pixels
Display aspect ratio : 16:9
Frame rate : 23.976 fps
Color space : YUV
Chroma subsampling : 4:2:0
Bit depth : 8 bits
Scan type : Progressive
Bits/(Pixel*Frame) : 0.187
Stream size : 244 MiB (87%)
Writing library : x264 core 138 r2358 9e941d1
Encoding settings : cabac=1 / ref=8 / deblock=1:-1:-1 / analyse=0x3:0x133 / me=umh / subme=9 / psy=1 / psy_rd=0.85:0.00 / mixed_ref=1 / me_range=32 / chroma_me=1 / trellis=0 / 8x8dct=1 / cqm=0 / deadzone=21,11 / fast_pskip=0 / chroma_qp_offset=-2 / threads=3 / lookahead_threads=1 / sliced_threads=0 / nr=0 / decimate=0 / interlaced=0 / bluray_compat=0 / constrained_intra=0 / bframes=8 / b_pyramid=2 / b_adapt=2 / b_bias=0 / direct=3 / weightb=1 / open_gop=0 / weightp=2 / keyint=240 / keyint_min=23 / scenecut=40 / intra_refresh=0 / rc_lookahead=60 / rc=2pass / mbtree=1 / bitrate=1485 / ratetol=1.0 / qcomp=0.70 / qpmin=0 / qpmax=69 / qpstep=4 / cplxblur=20.0 / qblur=0.5 / vbv_maxrate=50000 / vbv_bufsize=62500 / nal_hrd=none / ip_ratio=1.40 / aq=1:0.80
Language : English
Default : Yes
Forced : No

Audio
ID : 2
Format : AC-3
Format/Info : Audio Coding 3
Mode extension : CM (complete main)
Format settings, Endianness : Big
Codec ID : A_AC3
Duration : 23mn 25s
Bit rate mode : Constant
Bit rate : 192 Kbps
Channel(s) : 2 channels
Channel positions : Front: L R
Sampling rate : 48.0 KHz
Bit depth : 16 bits
Compression mode : Lossy
Stream size : 32.2 MiB (11%)
Title : Dub
Language : Russian
Default : Yes
Forced : No



   Похожие торренты   Торрент   Размер 
В этой теме нет новых непрочитанных сообщений. София Прекрасная / Sofia the First [S02] (2014) WEBDLRip | D

1074 | 147

8.45 ГБ

В этой теме нет новых непрочитанных сообщений. София Прекрасная / Sofia the First [S03] (2015) WEBDLRip | D

59 | 9

8.52 ГБ

В этой теме нет новых непрочитанных сообщений. София Прекрасная / Sofia the First [03x01-25] (2015) WEBDLRip | D

12 | 3

7.3 ГБ

В этой теме нет новых непрочитанных сообщений. София Прекрасная / Sofia the First [S03] (2015) WEBDLRip 720p | D

102 | 32

10.52 ГБ

В этой теме нет новых непрочитанных сообщений. София Прекрасная / Sofia the First [02x01-12, 14-18] (2014) WEBDLRip | D

203 | 74

5.32 ГБ

В этой теме нет новых непрочитанных сообщений. София Прекрасная / Sofia the First [02x1-12, 14-18, 20-22, 24] (2014) WEBDLRip | D

193 | 66

6.42 ГБ

В этой теме нет новых непрочитанных сообщений. София Прекрасная / Sofia the First [03x01-02, 07, 13] (2015) WEBDLRip | D

416 | 30

1.17 ГБ




Вы не можете начинать темы
Вы не можете отвечать на сообщения
Вы не можете редактировать свои сообщения
Вы не можете удалять свои сообщения
Вы не можете добавлять вложения

Перейти:  
Для Мосгорсуда, Роскомнадзора и рекламодателей: mosgorsud-torrent[собачка]yandex.ru
 Вход
ppkBB3cker v.2 © 2008-2014 @ PPK
[ Time : 1.368s | 16 Queries | GZIP : Off ]

cron