img image001 image001 image001 image001 image001 image001 image001 image001 image001 image001 image001 image001 image001 image001 image001

Planets Sun Sun Sun
Статистика раздачи
Автор: Nickolas3434 | Размер: 1.99 ГБ | Добавлен: 25 июн 2014
Раздают: 1233    Качают: 31
Скачать торрент
Скачать торрент
Описание торрента

СообщениеДобавлено: 25 июн 2014 

Информация о фильме
Название: Чебурашка
Оригинальное название: Cheburashka
Год выхода: 2014
Жанр: мультфильм, детский, семейный
Режиссер: Макото Накамура
В ролях: Лариса Брохман, Владимир Ферапонтов, Ольга Зверева, Дмитрий Филимонов, Александр Пожаров, Александр Груздев, Ольга Шорохова, Гарри Бардин, Владимир Орёл, Антон Морозов

О фильме: «Наш няшка – Чебурашка»
Мультфильм из трех историй: «Чебурашка и цирк», «Чебурашка идет в зоопарк» и «Советы Шапокляк». Прологом служит история о появлении Чебурашки в ящике из-под апельсинов, его знакомстве с крокодилом Геной и обретении друзей.

«Чебурашка и цирк» — история о дружбе и мечте. Гена и Чебурашка помогают девочке Маше научиться ходить по канату и осуществляют ее заветное желание — выступать в цирке. В серии «Чебурашка идет в зоопарк» Гена заболел, и Чебурашка отправился вместо него «работать крокодилом» в зоопарке. Возникает веселая путаница. Заключительная история — «Советы Шапокляк». Герои приходят на помощь фокуснику, потерявшему внучку. А Шапокляк открывает бюро платных бесполезных советов.

В этом мультфильме нет истории "Чебурашка идет в зоопарк"


Страна: Япония, Южная Корея, Россия, Беларусь
Студия: Ffangoentertoyment
Продолжительность: 01:20:19
Перевод: Полное дублирование – Студия "Ориол"

Файл
Кодек: h.264 (MKV)
Качество: WEBRip 720p
Видео: AVC, 1280 x 720, ~3219 kbps
Звук: AC-3, 2 ch, 256 kbps
Субтитры: нет

Семпл

» У команды получалось снимать лишь по 4-5 секунд видео в день, так как покадровая съемка — трудоемкий процесс. Каждый кадр снимается отдельно, а затем вручную двигаются элементы кукол.
» Размеры новых декораций и кукол значительно превышают советские оригиналы.
» Цирк как место действия в одном из сюжетов выбран режиссером неслучайно: в Японии имидж циркового искусства плотно связан с Россией.
» По мнению режиссера Макото Накамура, отношения между Геной и Чебурашкой напоминают отношения между Чарли Чаплином и Малышом из кинофильма «Малыш» (1921).
» Старых партитур из советского мультфильма не сохранилось, поэтому созданную в то время музыку Михаилом Зивом, композитору нового фильма Александру Гусеву приходилось «снимать» с экрана и затем инструментовать партитуру.
» Художника и консультанта Михаила Алдашина японскому режиссеру посоветовал Юрий Норштейн, отрекомендовав его как своего ученика.
» Михаил Алдашин уже работал над Чебурашкой со студией «Пилот», в свое время планировавшей выпустить мультфильм в 3D.
» В Японии – культ Чебурашки. Его плюшевую копию, а также чашки, ручки, футболки с его изображением можно купить почти во всех магазинах, продающих игрушки и сувениры. Чебурашке посвящены сайты и многочисленные сообщества в соцсетях.
» Когда зрители выходят из цирка, среди них можно заметить Ёжика из мультфильма «Ёжик в тумане» (1975).
» По просьбе киностудии "Союзмультфильм" аннулировано прокатное удостоверение мультфильма "Чебурашка" режиссера Макото Накамура. Студия утверждает, что российский прокат японской картины нарушает ее исключительные права на старые отечественные мультфильмы.
Тем не менее российская фирма ООО "Чебурашка", которая получила права для организации проката нового фильма на территории России от японской компании-правообладателя Terebi Tokyo Burodobando, считает аргументацию студии неубедительной. Создатель персонажа Эдуард Успенский резко раскритиковал действия "Союзмультфильма"."Эти люди, которые заявляют, что нарушены их права, — сами ничего не сделали. А японцы собрали прекрасную команду и сделали замечательный фильм", — сообщил писатель.
По словам источника в министерстве культуры, глава ведомства Владимир Мединский уже позвонил Эдуарду Успенскому и пообещал взять ситуацию под личный контроль.
Общее
Уникальный идентификатор : 213502537414890381705674204571354446914 (0xA09F17CEE9DABC56B2D8C8A5C60ABC42)
Полное имя : G: Чебурашка Cheburashka (2013)WEBRip 720pCheburashka(1) (1).mkv
Формат : Matroska
Версия формата : Version 4 / Version 2
Размер файла : 1,99 Гбайт
Продолжительность : 1 ч. 20 м.
Общий поток : 3546 Кбит/сек
Название фильма : profile.php?mode=viewprofile&u=22488948
Дата кодирования : UTC 2014-06-22 06:54:40
Программа кодирования : mkvmerge v6.9.1 ('Blue Panther') 64bit built on Apr 18 2014 18:23:38
Библиотека кодирования : libebml v1.3.0 + libmatroska v1.4.1

Видео
Идентификатор : 1
Формат : AVC
Формат/Информация : Advanced Video Codec
Профиль формата : Main@L5.1
Параметр CABAC формата : Да
Параметр ReFrames формата : 1 кадр
Идентификатор кодека : V_MPEG4/ISO/AVC
Продолжительность : 1 ч. 20 м.
Битрейт : 3219 Кбит/сек
Ширина : 1280 пикселей
Высота : 720 пикселей
Соотношение сторон : 16:9
Режим частоты кадров : Постоянный
Частота кадров : 25,000 кадров/сек
Цветовое пространство : YUV
Субдискретизация насыщенности : 4:2:0
Битовая глубина : 8 бит
Тип развёртки : Прогрессивная
Бит/(Пиксели*Кадры) : 0.140
Размер потока : 1,81 Гбайт (91%)
Default : Да
Forced : Нет

Аудио
Идентификатор : 2
Формат : AC-3
Формат/Информация : Audio Coding 3
Расширение режима : CM (complete main)
Параметр Endianness формата : Big
Идентификатор кодека : A_AC3
Продолжительность : 1 ч. 20 м.
Вид битрейта : Постоянный
Битрейт : 256 Кбит/сек
Каналы : 2 канала
Расположение каналов : Front: L R
Частота : 48,0 КГц
Битовая глубина : 16 бит
Метод сжатия : С потерями
Размер потока : 147 Мбайт (7%)
Default : Да
Forced : Нет



   Похожие торренты   Торрент   Размер 
В этой теме нет новых непрочитанных сообщений. Чебурашка / Cheburashka (2014) WEBRip

2767 | 58

1.37 ГБ

В этой теме нет новых непрочитанных сообщений. Чебурашка / Cheburashka (2014) WEBRip-AVC

443 | 37

538.81 МБ

В этой теме нет новых непрочитанных сообщений. Чебурашка / Cheburashka (2014) WEBRip

1188 | 15

697.83 МБ

В этой теме нет новых непрочитанных сообщений. Чебурашка / Cheburashka (2013) WEB-DLRip 720p

1378 | 73

1.56 ГБ

В этой теме нет новых непрочитанных сообщений. Чебурашка / Cheburashka (2014) WEB-DLRip от Twi7ter | лицензия

2652 | 113

1.45 ГБ

В этой теме нет новых непрочитанных сообщений. Чебурашка / Cheburashka (2014) DVD5 от New-Team | Лицензия

707 | 54

3.88 ГБ

В этой теме нет новых непрочитанных сообщений. Чебурашка арере? / Cheburashka Arere? (2010) HDTVRip 720p

1 | 6

1.13 ГБ




Вы не можете начинать темы
Вы не можете отвечать на сообщения
Вы не можете редактировать свои сообщения
Вы не можете удалять свои сообщения
Вы не можете добавлять вложения

Перейти:  
Для Мосгорсуда, Роскомнадзора и рекламодателей: mosgorsud-torrent[собачка]yandex.ru
 Вход
ppkBB3cker v.2 © 2008-2014 @ PPK
[ Time : 0.046s | 16 Queries | GZIP : Off ]

Торрент трекер RUTOR.IN, Не можете зайти на rutor.org? Какой новый адрес рутор? Какое зеркало рутор? Не работает rutor.org и зеркала? Тогда наш торрент специально для вас. Rutor.in неофициальное зеркало rutor. В случае если у Вас заблокирован rutor или вдруг Вы не можете на него зайти, то Вы без труда сможете скачать бесплатно и без рекламы последние новинки кино, игр, сериалов и прочего у нас, на Rutor.in. Не нужно использовать прокси, чтобы зайти на рутор, достаточно воспользоваться нашим ресурсом. Все новые фильмы, игры, сериалы, книги и музыка за 2013 и 2014 годы через торрент бесплатно. Скачивайте фильмы в хорошем качестве, игры для пк, xbox, playstation без регистрации. У нас вы найдете новые Зарубежные сериалы и Русские сериалы 2013, 2014, 2015 годов. Оставайтесь с нами, качайте любимые фильмы, игры, сериалы, книги и музыку.
cron