img image001 image001 image001 image001 image001 image001 image001 image001 image001 image001 image001 image001 image001 image001 image001

Planets Sun Sun Sun
Статистика раздачи
Автор: Nickolas3434 | Размер: 53.36 МБ | Добавлен: 25 июн 2014
Раздают: 154    Качают: 2
Скачать торрент
Скачать торрент
Описание торрента

СообщениеДобавлено: 25 июн 2014 

Информация о фильме:
Название: Круглое сафари
Оригинальное название: Rollin' Safari
Год выхода: 2012
Жанр: мультфильм, короткометражка
Режиссер: Kyra Buschor, Ännie Habermehl, Constantin Paeplow

О фильме:
В этом сафари все круглое. Круглые зебры, ягуар, фламинго и даже крокодил. Толстые и неповоротливые обитатели саванны ведут повседневную жизнь, однако размеры героев мультфильма «Круглое сафари» не дают им делать это с той легкостью, которую мы привыкли ждать от представителей дикой природы







Страна: Германия
Продолжительность: 02:18
Перевод: Не требуется

Файл:
Формат: MKV
Качество: BDRip [720p]
Видео: MPEG-4 AVC, 1280x720, 25.000 fps, 2728 Kbps, 16:9
Аудио: AC3, 48,0 KHz, 2 ch, 448 Kbps
Размер: 53,36 Mb

Общее
Уникальный идентификатор : 225812118018629615991029735270232820746 (0xA9E1D4FD47E29FAD953D1EC74F030C0A)
Полное имя : ROLLIN' SAFARI - BDRip [720p].mkv
Формат : Matroska
Версия формата : Version 4 / Version 2
Размер файла : 53,4 Мбайт
Продолжительность : 2 м. 18 с.
Общий поток : 3241 Кбит/сек
Название фильма : ROLLIN' SAFARI - BDRip [720p] -= Сотник =-
Дата кодирования : UTC 2014-05-26 13:18:53
Программа кодирования : mkvmerge v6.6.0 ('The Edge Of The In Between') built on Dec 1 2013 17:55:00
Библиотека кодирования : Lavf52.93.0

Видео
Идентификатор : 1
Формат : AVC
Формат/Информация : Advanced Video Codec
Профиль формата : Baseline@L3.1
Параметр CABAC формата : Нет
Параметр ReFrames формата : 1 кадр
Идентификатор кодека : V_MPEG4/ISO/AVC
Продолжительность : 2 м. 18 с.
Битрейт : 2728 Кбит/сек
Номинальный битрейт : 2981 Кбит/сек
Ширина : 1280 пикселей
Высота : 720 пикселей
Соотношение сторон : 16:9
Режим частоты кадров : Постоянный
Частота кадров : 25,000 кадров/сек
Цветовое пространство : YUV
Субдискретизация насыщенности : 4:2:0
Битовая глубина : 8 бит
Тип развёртки : Прогрессивная
Бит/(Пиксели*Кадры) : 0.118
Размер потока : 44,9 Мбайт (84%)
Библиотека кодирования : x264 core 112
Настройки программы : cabac=0 / ref=1 / deblock=1:0:0 / analyse=0x1:0x111 / me=hex / subme=7 / psy=1 / psy_rd=1.00:0.00 / mixed_ref=0 / me_range=16 / chroma_me=1 / trellis=1 / 8x8dct=0 / cqm=0 / deadzone=21,11 / fast_pskip=1 / chroma_qp_offset=-2 / threads=1 / sliced_threads=0 / nr=0 / decimate=1 / interlaced=0 / constrained_intra=0 / bframes=0 / weightp=0 / keyint=250 / keyint_min=25 / scenecut=40 / intra_refresh=0 / rc_lookahead=40 / rc=abr / mbtree=1 / bitrate=2981 / ratetol=1.0 / qcomp=0.60 / qpmin=10 / qpmax=51 / qpstep=4 / ip_ratio=1.41 / aq=1:1.00
Default : Да
Forced : Нет

Аудио
Идентификатор : 2
Формат : AC-3
Формат/Информация : Audio Coding 3
Расширение режима : CM (complete main)
Параметр Endianness формата : Big
Идентификатор кодека : A_AC3
Продолжительность : 2 м. 18 с.
Вид битрейта : Постоянный
Битрейт : 448 Кбит/сек
Каналы : 2 канала
Расположение каналов : Front: L R
Частота : 48,0 КГц
Битовая глубина : 16 бит
Метод сжатия : С потерями
Размер потока : 7,38 Мбайт (14%)
Default : Да
Forced : Нет





   Похожие торренты   Торрент   Размер 
В этой теме нет новых непрочитанных сообщений. Круглое сафари / Rollin' Safari (2012) BDRip-AVC от FireBit-Films

871 | 21

19.65 МБ

В этой теме нет новых непрочитанных сообщений. Дикая Южная Африка: Сафари / Wildlife South Africa: Safari (2012) BDRip 720p by msltel

20 | 5

1.71 ГБ

В этой теме нет новых непрочитанных сообщений. Дикая Южная Африка: Сафари / Wildlife South Africa: Safari (2012) BDRip 720p от denis 100 | P1

19 | 10

2.18 ГБ

В этой теме нет новых непрочитанных сообщений. Сафари / Safari (2009) BDRip 720p

2 | 2

3.76 ГБ

В этой теме нет новых непрочитанных сообщений. Дикая Южная Африка: Сафари / Wildlife South Africa: Safari (2012) BDRip от HitWay | P1

29 | 3

724.62 МБ

В этой теме нет новых непрочитанных сообщений. Дикая Южная Африка: Сафари / Wildlife South Africa: Safari (2012) BDRip-AVC by msltel

14 | 2

1.21 ГБ

В этой теме нет новых непрочитанных сообщений. Дикая Южная Африка: Сафари / Wildlife South Africa: Safari (2012) BDRip 1080p by msltel

30 | 6

4.27 ГБ




Вы не можете начинать темы
Вы не можете отвечать на сообщения
Вы не можете редактировать свои сообщения
Вы не можете удалять свои сообщения
Вы не можете добавлять вложения

Перейти:  
Для Мосгорсуда, Роскомнадзора и рекламодателей: mosgorsud-torrent[собачка]yandex.ru
 Вход
ppkBB3cker v.2 © 2008-2014 @ PPK
[ Time : 0.060s | 16 Queries | GZIP : Off ]

Торрент трекер RUTOR.IN, Не можете зайти на rutor.org? Какой новый адрес рутор? Какое зеркало рутор? Не работает rutor.org и зеркала? Тогда наш торрент специально для вас. Rutor.in неофициальное зеркало rutor. В случае если у Вас заблокирован rutor или вдруг Вы не можете на него зайти, то Вы без труда сможете скачать бесплатно и без рекламы последние новинки кино, игр, сериалов и прочего у нас, на Rutor.in. Не нужно использовать прокси, чтобы зайти на рутор, достаточно воспользоваться нашим ресурсом. Все новые фильмы, игры, сериалы, книги и музыка за 2013 и 2014 годы через торрент бесплатно. Скачивайте фильмы в хорошем качестве, игры для пк, xbox, playstation без регистрации. У нас вы найдете новые Зарубежные сериалы и Русские сериалы 2013, 2014, 2015 годов. Оставайтесь с нами, качайте любимые фильмы, игры, сериалы, книги и музыку.
cron