img image001 image001 image001 image001 image001 image001 image001 image001 image001 image001 image001 image001 image001 image001 image001

Planets Sun Sun Sun
Статистика раздачи
Автор: Nickolas3434 | Размер: 4.38 ГБ | Добавлен: 25 июн 2014
Раздают: 157    Качают: 39
Скачать торрент
Скачать торрент
Описание торрента

СообщениеДобавлено: 25 июн 2014 

Информация о фильме
Название: Учимся вместе: Руби и Йо-йо
Оригинальное название: Rubi
Год выхода: 2011
Жанр: Мультсериал, обучающий, развивающий, детский
Режиссер: Ю Яньпин, Ян Квирен

О фильме:
Опрятная и аккуратная героиня мультипликационного фильма девочка по имени Руби, рассказывает маленьким зрителям об окружающем их мире. В доступной и увлекательной форме она учит правильно и грамотно соблюдать личную гигиену, помогать родителям по дому, ухаживать за своими игрушками. Маленький человечек, оказываясь в незнакомом для него мире, не знает как правильно поступать в тех или иных ситуациях, когда можно начать разговор в присутствии взрослых или лучше промолчать... Девочка Руби и её друг Йо-йо в красочном и добром мультфильме живут жизнью самих юных сверстников, они отлично понимают их интересы, их увлечения. А посему смотреть мультик интересно не только детям, но и взрослым, чтобы лучше понимать мир малышей.

01. Загадочное яйцо
02. Магнитные пазлы
03. Открытка для мамы
04. Цветные мелки
05. Котенок Китти
06. В бассейне
07. Снежный бой
08. Шоу талантов
09. Дрессировщики
10. Погоня за птицей
11. Клубничка ищет братика
12. Внутри кита
13. Новая учительница
14. Путешествие на Луну
15. Большое и маленькое
16. Путешествие на Луну. Продолжение
17. Робот-няня
18. Мамины помощники
19. Храбрый ковбой
20. Радуга
21. Воздушные шарики
22. Спящая красавица
23. Игра в обруч
24. Чья мама лучше?
25. Головастики
26. Художники
27. Клубничное поле
28. Напугайка
29. Кто боится дождя?
30. Паровозик и гусеница
31. Малыш-клубничка притворяется
32. Мама на Луне
33. Сокровища под водой
34. Путешествие на плоту
35. Кроко и воздушный шарик
36. Неразумный Бобо
37. Как посадить дерево
38. В гостях у Кроко
39. Коньки
40. День рождения малыша-клубнички
41. Письмо для Кроко
42. Кувшинки
43. Музыкальный цветок
44. Пульт от телевизора
45. Воздушный змей
46. Упавшая звезда
47. Малыш-клубничка идет в школу
48. Прыжки на качелях
49. Мамина фотография
50. Разноцветные стены
51. Скейт
52. День рождения облачка

Страна: Сингапур
Студия: Hits for kids
Продолжительность: ~00:06:00 серия
Перевод: Профессиональный (одноголосый закадровый)

Файл
Кодек: AVC / AC3
Качество: WEB-DLRip 720p
Видео: AVC, 1280x720 (16:9), 25.000 fps, 1 800 Kbps (0.078 bit/pixel)
Звук: AC-3, 48.0 KHz, 2 ch, 192 Kbps, CBR (Russian)

General
Unique ID : 201987220381214401628424102773157089163 (0x97F552D83540532B8E909C98DE394F8B)
Complete name : /Руби и Йо-йо.2 сезон.720p.x264.-merci/Большое и маленькое.720p.x264.mkv
Format : Matroska
Format version : Version 2
File size : 86.2 MiB
Duration : 6mn 3s
Overall bit rate : 1 991 Kbps
Movie name : Руби и Йо-Йо / Ruby io io/ 2 сезон / by - merci -
Encoded date : UTC 2014-06-23 13:15:30
Writing application : mkvmerge v5.8.0 ('No Sleep / Pillow') built on Sep 2 2012 15:37:04
Writing library : libebml v1.2.3 + libmatroska v1.3.0

Video
ID : 1
Format : AVC
Format/Info : Advanced Video Codec
Format profile : High@L4.1
Format settings, CABAC : Yes
Format settings, ReFrames : 8 frames
Codec ID : V_MPEG4/ISO/AVC
Duration : 6mn 3s
Bit rate : 1 800 Kbps
Width : 1 280 pixels
Height : 720 pixels
Display aspect ratio : 16:9
Frame rate : 25.000 fps
Color space : YUV
Chroma subsampling : 4:2:0
Bit depth : 8 bits
Scan type : Progressive
Bits/(Pixel*Frame) : 0.078
Stream size : 76.2 MiB (88%)
Title : 15. Большое и маленькое.720p.x264.-merci
Writing library : x264 core 125 r2208 d9d2288
Encoding settings : cabac=1 / ref=8 / deblock=1:-2:-2 / analyse=0x3:0x133 / me=umh / subme=9 / psy=1 / psy_rd=1.15:0.25 / mixed_ref=1 / me_range=32 / chroma_me=1 / trellis=2 / 8x8dct=1 / cqm=0 / deadzone=21,11 / fast_pskip=0 / chroma_qp_offset=-4 / threads=6 / lookahead_threads=1 / sliced_threads=0 / nr=0 / decimate=0 / interlaced=0 / bluray_compat=0 / constrained_intra=0 / bframes=5 / b_pyramid=2 / b_adapt=2 / b_bias=0 / direct=3 / weightb=1 / open_gop=0 / weightp=2 / keyint=250 / keyint_min=25 / scenecut=40 / intra_refresh=0 / rc=2pass / mbtree=0 / bitrate=1800 / ratetol=1.0 / qcomp=0.75 / qpmin=0 / qpmax=69 / qpstep=4 / cplxblur=20.0 / qblur=0.5 / ip_ratio=1.40 / pb_ratio=1.30 / aq=2:0.80
Language : English
Default : Yes
Forced : No
Color primaries : BT.709-5, BT.1361, IEC 61966-2-4, SMPTE RP177
Transfer characteristics : BT.709-5, BT.1361
Matrix coefficients : BT.709-5, BT.1361, IEC 61966-2-4 709, SMPTE RP177

Audio
ID : 2
Format : AC-3
Format/Info : Audio Coding 3
Mode extension : CM (complete main)
Format settings, Endianness : Big
Codec ID : A_AC3
Duration : 6mn 3s
Bit rate mode : Constant
Bit rate : 192 Kbps
Channel(s) : 2 channels
Channel positions : Front: L R
Sampling rate : 48.0 KHz
Bit depth : 16 bits
Compression mode : Lossy
Stream size : 8.32 MiB (10%)
Title : rus
Language : Russian
Default : Yes
Forced : No



   Похожие торренты   Торрент   Размер 
В этой теме нет новых непрочитанных сообщений. Учимся вместе: Руби и Йо-йо / Rubi [S01] (2011) WEB-DLRip 720p

203 | 56

4.38 ГБ

В этой теме нет новых непрочитанных сообщений. Учимся вместе: Руби и Йо-йо / Rubi [S03] (2011) WEB-DLRip 720p

23 | 24

12.61 ГБ

В этой теме нет новых непрочитанных сообщений. Учимся вместе: Руби и Йо-йо / Rubi [S03] (2011) WEB-DLRip 720p

25 | 260

13.61 ГБ

В этой теме нет новых непрочитанных сообщений. Учимся вместе: Руби и Йо-йо / Rubi [S03] (2011) WEB-DLRip 720p

36 | 52

12 ГБ

В этой теме нет новых непрочитанных сообщений. Учимся вместе: Руби и Йо-йо / Rubi [S03] (2011) WEB-DLRip 720p

86 | 33

6.56 ГБ

В этой теме нет новых непрочитанных сообщений. Учимся вместе: Руби и Йо-йо / Ruby io io [01-452] (2011-2014) WEB-DLRip от -merci-

23 | 5

17.73 ГБ

В этой теме нет новых непрочитанных сообщений. Полиглот. Учимся китайскому языку [01-56 + другие циклы] (2009-2011) SATRip

370 | 25

5.03 ГБ




Вы не можете начинать темы
Вы не можете отвечать на сообщения
Вы не можете редактировать свои сообщения
Вы не можете удалять свои сообщения
Вы не можете добавлять вложения

Перейти:  
Для Мосгорсуда, Роскомнадзора и рекламодателей: mosgorsud-torrent[собачка]yandex.ru
 Вход
ppkBB3cker v.2 © 2008-2014 @ PPK
[ Time : 0.054s | 17 Queries | GZIP : Off ]

Торрент трекер RUTOR.IN, Не можете зайти на rutor.org? Какой новый адрес рутор? Какое зеркало рутор? Не работает rutor.org и зеркала? Тогда наш торрент специально для вас. Rutor.in неофициальное зеркало rutor. В случае если у Вас заблокирован rutor или вдруг Вы не можете на него зайти, то Вы без труда сможете скачать бесплатно и без рекламы последние новинки кино, игр, сериалов и прочего у нас, на Rutor.in. Не нужно использовать прокси, чтобы зайти на рутор, достаточно воспользоваться нашим ресурсом. Все новые фильмы, игры, сериалы, книги и музыка за 2013 и 2014 годы через торрент бесплатно. Скачивайте фильмы в хорошем качестве, игры для пк, xbox, playstation без регистрации. У нас вы найдете новые Зарубежные сериалы и Русские сериалы 2013, 2014, 2015 годов. Оставайтесь с нами, качайте любимые фильмы, игры, сериалы, книги и музыку.
cron