img image001 image001 image001 image001 image001 image001 image001 image001 image001 image001 image001 image001 image001 image001 image001

Planets Sun Sun Sun
Статистика раздачи
Автор: Nickolas3434 | Размер: 5.75 ГБ | Добавлен: 26 июн 2014
Раздают: 216    Качают: 20
Скачать торрент
Скачать торрент
Описание торрента

СообщениеДобавлено: 26 июн 2014 

Название: Лего. Фильм
Оригинальное название: The Lego Movie
Год выпуска: 2014
Жанр: Мультфильм, боевик, комедия
Выпущено: США, Animal Logic, LEGO, Lin Pictures, Vertigo Entertainment, Village Roadshow Pictures, Warner Bros. Pictures
Режиссер: Фил Лорд, Крис Миллер, Крис МакКэй
В ролях: Уилл Феррелл, Лиам Нисон, Элисон Бри, Морган Фримен, Элизабет Бэнкс, Крис Прэтт, Уилл Арнетт, Ник Офферман, Джэдон Сэнд

Перевод: Дублированный

Сюжет фильма

Вселенная Лего всегда была очень разной и многоплановой. В ней существовали разные лего-люди, возвышались разные строения в больших лего-городах, ездили быстрые лего-машины. И все эти миры существовали каждый отдельно. В каждом из них развивалась своя история. И лего-злодеи тоже всегда здесь были. Но с ними отлично умели справляться супергерои (конечно же, они тоже были из наборов лего). Но в какой-то момент в голову одному из злодеев пришла мысль, что весь лего-мир должен стать единым и принадлежать только ему! И лишь он один будет править всеми лего-подданными, как ему захочется. И, чтобы осущиствить свой коварный план, этот диктатор решил склеить все отдельные части лего-мира. Вот уж тогда точно никто никуда от него не денется! Но свободные жители не хотят идти в рабство к одному выскочке! Чтобы предотвратить беду, необходимо найти смельчаков, которые разрушат черные замыслы и даже смогут пожертвовать своей жизнью, чтобы спасти лего-народ. Вот одним из таких героев становится обычная лего-фигурка, которую все знали, как Эммета. Он всю свою игрушечную жизнь занимается строительством домов согласно инструкциям. Но теперь, в новом для себя образе героя, Эммету придется действовать в команде не по инструкции, а согласно своей интуиции и сообразительности.



Файл
Качество: BDRip 1080p (исходник Blu-ray Remux)
Видео: 1920x800, 7100 Кбит/сек, 23.976 кадр/сек, AVC, x264, High@L4.1, 0.193 Бит/[Пиксели*Кадры], 2pass
Аудио 1: AC3 5.1 48 kHz 448 kbps - Дублированный
Аудио 2: AC3 5.1 48 kHz 640 kbps - English
Чаптеры: есть
Субтитры: Russian(Full,Forced),English(Full,SDH,SDH-Colored)
Продолжительность: 01:40:33
Автор рипа: Сообщество:


Format : Matroska
Format version : Version 2
File size : 5.75 GiB
Duration : 1h 40mn
Overall bit rate : 8 185 Kbps
Movie name : Lego. Fil'm.(2014).BDRip.1080p.[denis100]
Encoded date : UTC 2014-06-25 14:44:11
Writing application : mkvmerge v5.8.0 ('No Sleep / Pillow') built on Sep 2 2012 15:37:04
Writing library : libebml v1.2.3 + libmatroska v1.3.0

Video
ID : 1
Format : AVC
Format/Info : Advanced Video Codec
Format profile : High@L4.1
Format settings, CABAC : Yes
Format settings, ReFrames : 5 frames
Codec ID : V_MPEG4/ISO/AVC
Duration : 1h 40mn
Bit rate : 7 100 Kbps
Width : 1 920 pixels
Height : 800 pixels
Display aspect ratio : 2.40:1
Frame rate mode : Constant
Frame rate : 23.976 fps
Color space : YUV
Chroma subsampling : 4:2:0
Bit depth : 8 bits
Scan type : Progressive
Bits/(Pixel*Frame) : 0.193
Stream size : 4.87 GiB (85%)
Title : Lego. Fil'm.(2014).BDRip.1080p.[denis100]
Writing library : x264 core 138 r2358 9e941d1
Encoding settings : cabac=1 / ref=5 / deblock=1:-3:-3 / analyse=0x3:0x133 / me=umh / subme=11 / psy=1 / psy_rd=1.00:0.15 / mixed_ref=1 / me_range=32 / chroma_me=1 / trellis=2 / 8x8dct=1 / cqm=0 / deadzone=21,11 / fast_pskip=0 / chroma_qp_offset=-3 / threads=6 / lookahead_threads=1 / sliced_threads=0 / nr=0 / decimate=1 / interlaced=0 / bluray_compat=0 / constrained_intra=0 / bframes=8 / b_pyramid=2 / b_adapt=2 / b_bias=0 / direct=3 / weightb=1 / open_gop=0 / weightp=2 / keyint=240 / keyint_min=23 / scenecut=40 / intra_refresh=0 / rc=2pass / mbtree=0 / bitrate=7100 / ratetol=1.0 / qcomp=0.60 / qpmin=0 / qpmax=69 / qpstep=4 / cplxblur=20.0 / qblur=0.5 / ip_ratio=1.40 / pb_ratio=1.30 / aq=1:0.90
Language : English
Default : Yes
Forced : No

Audio #1
ID : 2
Format : AC-3
Format/Info : Audio Coding 3
Mode extension : CM (complete main)
Format settings, Endianness : Big
Codec ID : A_AC3
Duration : 1h 40mn
Bit rate mode : Constant
Bit rate : 448 Kbps
Channel(s) : 6 channels
Channel positions : Front: L C R, Side: L R, LFE
Sampling rate : 48.0 KHz
Bit depth : 16 bits
Compression mode : Lossy
Stream size : 322 MiB (5%)
Title : Дублированный
Language : Russian
Default : Yes
Forced : No

Audio #2
ID : 3
Format : AC-3
Format/Info : Audio Coding 3
Mode extension : CM (complete main)
Format settings, Endianness : Big
Codec ID : A_AC3
Duration : 1h 40mn
Bit rate mode : Constant
Bit rate : 640 Kbps
Channel(s) : 6 channels
Channel positions : Front: L C R, Side: L R, LFE
Sampling rate : 48.0 KHz
Bit depth : 16 bits
Compression mode : Lossy
Stream size : 461 MiB (8%)
Title : English
Language : English
Default : No
Forced : No

Text #1
ID : 4
Format : UTF-8
Codec ID : S_TEXT/UTF8
Codec ID/Info : UTF-8 Plain Text
Title : Russian, Full
Language : Russian
Default : No
Forced : No

Text #2
ID : 5
Format : UTF-8
Codec ID : S_TEXT/UTF8
Codec ID/Info : UTF-8 Plain Text
Title : Russian Forced
Language : Russian
Default : Yes
Forced : No

Text #3
ID : 6
Format : UTF-8
Codec ID : S_TEXT/UTF8
Codec ID/Info : UTF-8 Plain Text
Title : English
Language : English
Default : No
Forced : No

Text #4
ID : 7
Format : UTF-8
Codec ID : S_TEXT/UTF8
Codec ID/Info : UTF-8 Plain Text
Title : English. SDH
Language : English
Default : No
Forced : No

Text #5
ID : 8
Format : UTF-8
Codec ID : S_TEXT/UTF8
Codec ID/Info : UTF-8 Plain Text
Title : English,SDH-Colored
Language : English
Default : No
Forced : No

Menu
00:00:00.000 : en:00:00:00.000
00:09:44.042 : en:00:09:44.042
00:18:18.389 : en:00:18:18.389
00:29:50.747 : en:00:29:50.747
00:38:48.034 : en:00:38:48.034
00:48:45.047 : en:00:48:45.047
00:57:49.424 : en:00:57:49.424
01:06:05.253 : en:01:06:05.253
01:16:24.205 : en:01:16:24.205
01:25:56.151 : en:01:25:56.151
01:32:57.322 : en:01:32:57.322
x264 [info]: frame I:6 Avg QP:13.62 size:166723
x264 [info]: frame P:69 Avg QP:14.28 size: 65407
x264 [info]: frame B:241 Avg QP:15.06 size: 17707



   Похожие торренты   Торрент   Размер 
В этой теме нет новых непрочитанных сообщений. Лего. Фильм / The Lego Movie (2014) BDRip 1080p от HDTracker | A, D

38 | 63

9.47 ГБ

В этой теме нет новых непрочитанных сообщений. Лего. Фильм / The Lego Movie (2014) BDRip 1080p | Лицензия

390 | 27

7.66 ГБ

В этой теме нет новых непрочитанных сообщений. Лего. Фильм / The Lego Movie (2014) BDRip 1080p от Ash61 | 3D-Video | halfOU | Лицензия

200 | 25

6.59 ГБ

В этой теме нет новых непрочитанных сообщений. Лего. Фильм / The Lego Movie (2014) BDRip 1080p от Ash61 | 3D-Video | halfOU | iTunes

363 | 99

6.36 ГБ

В этой теме нет новых непрочитанных сообщений. Лего. Фильм / The Lego Movie (2014) Blu-Ray 1080p | Лицензия

21 | 7

29.87 ГБ

В этой теме нет новых непрочитанных сообщений. Лего. Фильм / The Lego Movie (2014) HDTVRip 1080p | Трейлер

66 | 6

215.1 МБ

В этой теме нет новых непрочитанных сообщений. Лего. Фильм / The Lego Movie (2014) BDRip-AVC | iPad | D

93 | 18

1.85 ГБ




Вы не можете начинать темы
Вы не можете отвечать на сообщения
Вы не можете редактировать свои сообщения
Вы не можете удалять свои сообщения
Вы не можете добавлять вложения

Перейти:  
Для Мосгорсуда, Роскомнадзора и рекламодателей: mosgorsud-torrent[собачка]yandex.ru
 Вход
ppkBB3cker v.2 © 2008-2014 @ PPK
[ Time : 0.032s | 15 Queries | GZIP : On ]

Торрент трекер RUTOR.IN, Не можете зайти на rutor.org? Какой новый адрес рутор? Какое зеркало рутор? Не работает rutor.org и зеркала? Тогда наш торрент специально для вас. Rutor.in неофициальное зеркало rutor. В случае если у Вас заблокирован rutor или вдруг Вы не можете на него зайти, то Вы без труда сможете скачать бесплатно и без рекламы последние новинки кино, игр, сериалов и прочего у нас, на Rutor.in. Не нужно использовать прокси, чтобы зайти на рутор, достаточно воспользоваться нашим ресурсом. Все новые фильмы, игры, сериалы, книги и музыка за 2013 и 2014 годы через торрент бесплатно. Скачивайте фильмы в хорошем качестве, игры для пк, xbox, playstation без регистрации. У нас вы найдете новые Зарубежные сериалы и Русские сериалы 2013, 2014, 2015 годов. Оставайтесь с нами, качайте любимые фильмы, игры, сериалы, книги и музыку.