img image001 image001 image001 image001 image001 image001 image001 image001 image001 image001 image001 image001 image001 image001 image001

Planets Sun Sun Sun
Статистика раздачи
Автор: Nickolas3434 | Размер: 993.71 МБ | Добавлен: 27 июн 2014
Раздают: 34    Качают: 6
Скачать торрент
Скачать торрент
Описание торрента

СообщениеДобавлено: 27 июн 2014 

Сын Бэтмена / Son of Batman (2014) BDRip-AVC | iPad | O


Название: Сын Бэтмена
Оригинальное название: Son of Batman
Год выхода: 2014
Жанр: мультфильм, фэнтези, боевик, драма, криминал, детектив, приключения, семейный
Режиссер: Этан Сполдинг
В ролях: Джейсон О’Мара, Стюарт Аллан, Томас Гибсон, Морена Баккарин, Ди Брэдли Бейкер, Ксандер Беркли, Джанкарло Эспозито, Шон Маэр, Дэвид МакКаллум, Дайан Мишель

О фильме:
Бэтмен узнает, что он имеет наследника, подростка-сына, тайно посланного террористической группой Лига Убийц


Страна: США
Студия: DC Entertainment, Warner Bros. Animation, Warner Premiere

Продолжительность: 01:14:09
Перевод: Отсутствует

Файл
Кодек: H.264
Качество: BDRip [576p]
Видео: 1024x576 (16:9) at 23.976 fps, AVC at 1700 kbps
Звук:
1: АAС 2.0 172 kbps - Английский
Субтитры: Русский

General
Complete name : I:modoutSon.of.Batman.2014.576p.Rsub.m4v
Format : MPEG-4
Codec ID : M4V
File size : 994 MiB
Duration : 1h 14mn
Overall bit rate mode : Variable
Overall bit rate : 1 873 Kbps
Movie name : Сын Бэтмена
Performer : Ethan Spaulding
Genre : Action & Adventure
ContentType : Short Film
Deion : Бэтмен узнает, что он имеет наследника, подростка-сына, тайно посланного террористической группой Лига Убийц
Recorded date : UTC 2014-05-06 07:00:00
Encoded date : UTC 2014-06-26 17:02:29
Tagged date : UTC 2014-06-26 17:05:03
Copyright : DC Entertainment, Warner Bros. Animation, Warner Premiere
Cover : Yes
ContentRating : mpaa|PG-13|300|

Title/Sort : Son of Batman
LongDeion : Бэтмен узнает, что он имеет наследника, подростка-сына, тайно посланного террористической группой Лига Убийц
AppleStoreCatalogID : 843268653
Vendor : Apple:vendor_id:2014-794527

Video
ID : 1
Format : AVC
Format/Info : Advanced Video Codec
Format profile : High@L4.1
Format settings, CABAC : Yes
Format settings, ReFrames : 10 frames
Codec ID : avc1
Codec ID/Info : Advanced Video Coding
Duration : 1h 14mn
Bit rate : 1 694 Kbps
Maximum bit rate : 13.3 Mbps
Width : 1 024 pixels
Height : 576 pixels
Display aspect ratio : 16:9
Frame rate mode : Constant
Frame rate : 23.976 fps
Color space : YUV
Chroma subsampling : 4:2:0
Bit depth : 8 bits
Scan type : Progressive
Bits/(Pixel*Frame) : 0.120
Stream size : 898 MiB (90%)
Title : Son.of.Batman.2014
Language : English
Encoded date : UTC 2014-06-26 17:02:29
Tagged date : UTC 2014-06-26 17:02:34

Audio
ID : 2
Format : AAC
Format/Info : Advanced Audio Codec
Format profile : LC
Codec ID : 40
Duration : 1h 14mn
Bit rate mode : Variable
Bit rate : 172 Kbps
Maximum bit rate : 237 Kbps
Channel(s) : 2 channels
Channel positions : Front: L R
Sampling rate : 48.0 KHz
Compression mode : Lossy
Stream size : 91.3 MiB (9%)
Title : Original
Language : English
Encoded date : UTC 2014-06-26 17:01:06
Tagged date : UTC 2014-06-26 17:02:34

Text
ID : 3
Format : Timed Text
Muxing mode : sbtl
Codec ID : tx3g
Duration : 1h 9mn
Bit rate mode : Variable
Bit rate : 61 bps
Stream size : 31.2 KiB (0%)
Title : Subtitle Russian
Language : Russian
Encoded date : UTC 2014-06-26 17:02:34
Tagged date : UTC 2014-06-26 17:02:34

Menu
ID : 4
Codec ID : text
Duration : 1h 14mn
Encoded date : UTC 2014-06-26 17:02:41
Tagged date : UTC 2014-06-26 17:02:41
Bit rate mode : CBR

x264 [info]: frame I:1177 Avg QP:14.75 size: 77482
x264 [info]: frame P:21755 Avg QP:17.84 size: 20007
x264 [info]: frame B:83745 Avg QP:18.66 size: 4507
x264 [info]: consecutive B-frames: 3.4% 4.1% 13.2% 7.2% 8.0% 17.9% 6.6% 7.5% 26.1% 1.0% 0.7% 0.9% 3.6%
x264 [info]: mb I I16..4: 17.7% 44.7% 37.6%
x264 [info]: mb P I16..4: 2.2% 7.2% 4.6% P16..4: 30.8% 25.8% 10.8% 2.9% 0.6% skip:15.2%
x264 [info]: mb B I16..4: 0.4% 0.5% 0.3% B16..8: 29.5% 13.1% 1.8% direct: 2.1% skip:52.4% L0:48.5% L1:45.7% BI: 5.8%
x264 [info]: 8x8 transform intra:47.7% inter:31.3%
x264 [info]: coded y,uvDC,uvAC intra: 69.7% 76.9% 63.7% inter: 7.4% 7.9% 4.5%
x264 [info]: i16 v,h,dc,p: 39% 9% 18% 34%
x264 [info]: i8 v,h,dc,ddl,ddr,vr,hd,vl,hu: 10% 14% 21% 8% 9% 7% 10% 8% 12%
x264 [info]: i4 v,h,dc,ddl,ddr,vr,hd,vl,hu: 14% 15% 11% 10% 12% 9% 10% 9% 11%
x264 [info]: i8c dc,h,v,p: 39% 27% 15% 19%
x264 [info]: Weighted P-Frames: Y:3.3% UV:2.9%
x264 [info]: ref P L0: 57.1% 4.0% 15.4% 7.7% 5.3% 3.6% 2.7% 1.6% 1.3% 1.0% 0.3% 0.0%
x264 [info]: ref B L0: 62.5% 14.4% 8.5% 4.4% 3.4% 2.6% 2.1% 1.4% 0.7%
x264 [info]: ref B L1: 87.2% 12.8%
x264 [info]: kb/s:1693.52

Sort Name: Son of Batman
XID: Apple:vendor_id:2014-794527
Content ID: 843268653
Copyright: DC Entertainment, Warner Bros. Animation, Warner Premiere
ScreenWriters: Грант Моррисон, Энди Куберт, Джо Р. Лэнсдэйл
Producers: Алан Барнетт, Тошиюки Хирума, Бенджамин Мельникер
Director: Этан Сполдинг
Cast: Джейсон О’Мара, Стюарт Аллан, Томас Гибсон, Морена Баккарин, Ди Брэдли Бейкер, Ксандер Беркли, Джанкарло Эспозито, Шон Маэр, Дэвид МакКаллум, Дайан Мишель / Jason O'Mara (Bruce Wayne / Batman), Stuart Allan (Damian), Thomas Gibson (Slade Wilson / Deathstroke), Morena Baccarin (Talia al Ghul), Giancarlo Esposito (Ra's al Ghul), David McCallum (Alfred Pennyworth), Xander Berkeley (Dr. Kirk Langstrom), Jeff Bennett (Alfred Pennyworth), Cameron Bowen (Robin / Tim Drake)
Rating: PG-13
Long Deion: Бэтмен узнает, что он имеет наследника, подростка-сына, тайно посланного террористической группой Лига Убийц
Deion: Бэтмен узнает, что он имеет наследника, подростка-сына, тайно посланного террористической группой Лига Убийц
Release Date: 2014-05-06T07:00:00Z
Genre: Action & Adventure
Artist: Ethan Spaulding
Name: Сын Бэтмена






   Похожие торренты   Торрент   Размер 
В этой теме нет новых непрочитанных сообщений. Сын Бэтмена / Son of Batman (2014) BDRip 720p | 2xL

239 | 67

2.03 ГБ

В этой теме нет новых непрочитанных сообщений. Сын Бэтмена / Son of Batman (2014) BDRip-AVC от potroks | L

143 | 9

1.33 ГБ

В этой теме нет новых непрочитанных сообщений. Сын Бэтмена / Son of Batman (2014) BDRip 720р от fox-torrents | L

179 | 44

2.76 ГБ

В этой теме нет новых непрочитанных сообщений. Сын Бэтмена / Son of Batman (2014) HDRip | L

1225 | 143

1.37 ГБ

В этой теме нет новых непрочитанных сообщений. Берегитесь Бэтмена / Beware the Batman [01x01-26 из 26] (2013-2014) WEB-DL 1080p | L1

159 | 43

21.41 ГБ

В этой теме нет новых непрочитанных сообщений. Берегитесь Бэтмена / Beware the Batman [01x01-18] (2013-2014) WEB-DL 1080p | L1

24 | 31

15.02 ГБ

В этой теме нет новых непрочитанных сообщений. Берегитесь Бэтмена / Beware the Batman [01x01-19] (2013-2014) WEB-DL 1080p | L1

12 | 38

15.83 ГБ




Вы не можете начинать темы
Вы не можете отвечать на сообщения
Вы не можете редактировать свои сообщения
Вы не можете удалять свои сообщения
Вы не можете добавлять вложения

Перейти:  
Для Мосгорсуда, Роскомнадзора и рекламодателей: mosgorsud-torrent[собачка]yandex.ru
 Вход
ppkBB3cker v.2 © 2008-2014 @ PPK
[ Time : 0.031s | 14 Queries | GZIP : Off ]

Торрент трекер RUTOR.IN, Не можете зайти на rutor.org? Какой новый адрес рутор? Какое зеркало рутор? Не работает rutor.org и зеркала? Тогда наш торрент специально для вас. Rutor.in неофициальное зеркало rutor. В случае если у Вас заблокирован rutor или вдруг Вы не можете на него зайти, то Вы без труда сможете скачать бесплатно и без рекламы последние новинки кино, игр, сериалов и прочего у нас, на Rutor.in. Не нужно использовать прокси, чтобы зайти на рутор, достаточно воспользоваться нашим ресурсом. Все новые фильмы, игры, сериалы, книги и музыка за 2013 и 2014 годы через торрент бесплатно. Скачивайте фильмы в хорошем качестве, игры для пк, xbox, playstation без регистрации. У нас вы найдете новые Зарубежные сериалы и Русские сериалы 2013, 2014, 2015 годов. Оставайтесь с нами, качайте любимые фильмы, игры, сериалы, книги и музыку.