img image001 image001 image001 image001 image001 image001 image001 image001 image001 image001 image001 image001 image001 image001 image001

Planets Sun Sun Sun
Статистика раздачи
Автор: Nickolas3434 | Размер: 2.8 ГБ | Добавлен: 28 июн 2014
Раздают: 1316    Качают: 141
Скачать торрент
Скачать торрент
Описание торрента

СообщениеДобавлено: 28 июн 2014 

Информация о фильме
Название: Рио 2
Оригинальное название: Rio 2
Год выхода: 2014
Жанр: мультфильм, комедия, приключения, семейный
Режиссер: Карлос Салдана
В ролях: Тио Пакусодево, Ока Антара, Дони Аламсях, Джули Эстелль, Яян Рухьян, Рюхэй Мацуда, Алекс Аббад, Арифин Путра, Сесеп Ариф Рахман, Ико Ювайс

О фильме:
Голубчик, Жемчужинка и их трое детей живут счастливой жизнью в волшебном городе Рио-де-Жанейро. Когда Жемчужинка решает, что их детям нужно научиться жить как настоящим птицам, она настаивает на авантюрной поездке в дебри реки Амазонки. Там, пытаясь вписаться в новое окружение, Голубчик начинает беспокоиться, что может потерять Жемчужинку и детей, идущих на зов дикой природы.

MPAA: G - Нет возрастных ограничений



Страна: США / 20th Century Fox Animation, Blue Sky Studios
Продолжительность: 01:41:11
Перевод: Дублированное

Файл
Качество: BDRip-AVC [Rio 2 2014 1080p 3D EUR Blu-ray AVC DTS-HD MA 7 1-TRUEDEF]
Видео: AVC, 1056x440 (2.40:1), 3045 kbps, 23,976 fps, 0,273 bpp
Аудио №1: русский / AC3 / 2.0 / 48 kHz / 384 kbps / 16 bit |Чистый звук|
Аудио №2: английский / AC3 / 5.1 / 48 kHz / 448 kbps / 16 bit
Навигация по главам: есть
Субтитры: Английские

Семпл

---[Information] [28.06.2014 11:23:23] x264 [info]: frame I:1343 Avg QP:13.97 size:116876
---[Information] [28.06.2014 11:23:23] x264 [info]: frame P:36789 Avg QP:18.16 size: 29147
---[Information] [28.06.2014 11:23:23] x264 [info]: frame B:107432 Avg QP:20.49 size: 10614
---[Information] [28.06.2014 11:23:23] x264 [info]: consecutive B-frames: 2.6% 3.7% 17.0% 36.6% 15.9% 16.0% 6.0% 0.7% 0.8% 0.7%
---[Information] [28.06.2014 11:23:23] x264 [info]: mb I I16..4: 8.2% 55.4% 36.3%
---[Information] [28.06.2014 11:23:23] x264 [info]: mb P I16..4: 0.8% 14.2% 3.2% P16..4: 23.6% 24.9% 15.7% 5.0% 1.2% skip:11.5%
---[Information] [28.06.2014 11:23:23] x264 [info]: mb B I16..4: 0.2% 3.4% 0.7% B16..8: 25.1% 17.5% 4.4% direct: 5.2% skip:43.5% L0:36.4% L1:40.7% BI:22.9%
---[Information] [28.06.2014 11:23:23] x264 [info]: 8x8 transform intra:76.6% inter:47.6%
---[Information] [28.06.2014 11:23:23] x264 [info]: direct mvs spatial:99.7% temporal:0.3%
---[Information] [28.06.2014 11:23:23] x264 [info]: coded y,uvDC,uvAC intra: 93.1% 94.5% 82.6% inter: 23.9% 22.7% 14.0%
---[Information] [28.06.2014 11:23:23] x264 [info]: i16 v,h,dc,p: 11% 10% 15% 64%
---[Information] [28.06.2014 11:23:23] x264 [info]: i8 v,h,dc,ddl,ddr,vr,hd,vl,hu: 11% 12% 7% 9% 11% 11% 13% 12% 15%
---[Information] [28.06.2014 11:23:23] x264 [info]: i4 v,h,dc,ddl,ddr,vr,hd,vl,hu: 12% 9% 5% 8% 15% 13% 14% 10% 13%
---[Information] [28.06.2014 11:23:23] x264 [info]: i8c dc,h,v,p: 42% 22% 15% 21%
---[Information] [28.06.2014 11:23:23] x264 [info]: Weighted P-Frames: Y:3.4% UV:2.6%
---[Information] [28.06.2014 11:23:23] x264 [info]: ref P L0: 54.0% 13.0% 14.1% 5.3% 3.6% 2.8% 2.1% 1.4% 1.1% 1.1% 1.1% 0.3% 0.0%
---[Information] [28.06.2014 11:23:23] x264 [info]: ref B L0: 81.9% 8.5% 4.0% 1.8% 1.2% 0.8% 0.7% 0.5% 0.3% 0.2%
---[Information] [28.06.2014 11:23:23] x264 [info]: ref B L1: 93.3% 6.7%
---[Information] [28.06.2014 11:23:23] x264 [info]: kb/s:3122.36
---[Information] [28.06.2014 11:23:23] encoded 145564 frames, 5.577 fps, 3122.36 kb/s, 2259.8 MB

Format : Matroska
Format version : Version 4 / Version 2
File size : 2.80 GiB
Duration : 1h 41mn
Overall bit rate : 3 956 Kbps
Movie name : R1o.2.2014.D..x264.BDRip-AVC - Vikosol
Encoded date : UTC 2014-06-28 12:27:10
Writing application : mkvmerge v6.8.0 ('Theme for Great Cities') 64bit built on Mar 2 2014 21:34:26
Writing library : libebml v1.3.0 + libmatroska v1.4.1

Video
ID : 1
Format : AVC
Format/Info : Advanced Video Codec
Format profile : High@L4.1
Format settings, CABAC : Yes
Format settings, ReFrames : 11 frames
Codec ID : V_MPEG4/ISO/AVC
Duration : 1h 41mn
Bit rate : 3 046 Kbps
Width : 1 056 pixels
Height : 440 pixels
Display aspect ratio : 2.40:1
Frame rate : 23.976 fps
Color space : YUV
Chroma subsampling : 4:2:0
Bit depth : 8 bits
Scan type : Progressive
Bits/(Pixel*Frame) : 0.273
Stream size : 2.15 GiB (77%)
Writing library : x264 core 142 r2431+42 c69a006 tMod [8-bit@all X86_64]
Encoding settings : cabac=1 / ref=11 / deblock=1:-3:-3 / analyse=0x3:0x133 / me=tesa / subme=11 / psy=1 / fade_compensate=0.00 / psy_rd=1.00:0.20 / mixed_ref=1 / me_range=24 / chroma_me=1 / trellis=2 / 8x8dct=1 / cqm=0 / deadzone=21,11 / fast_pskip=0 / chroma_qp_offset=-3 / threads=6 / lookahead_threads=1 / sliced_threads=0 / nr=0 / decimate=0 / interlaced=0 / bluray_compat=0 / constrained_intra=0 / fgo=0 / bframes=9 / b_pyramid=2 / b_adapt=2 / b_bias=0 / direct=3 / weightb=1 / open_gop=0 / weightp=2 / keyint=240 / keyint_min=23 / scenecut=40 / intra_refresh=0 / rc_lookahead=60 / rc=crf / mbtree=1 / crf=17.4000 / qcomp=0.80 / qpmin=0:0:0 / qpmax=69:69:69 / qpstep=4 / vbv_maxrate=62500 / vbv_bufsize=78125 / crf_max=0.0 / nal_hrd=none / filler=0 / ip_ratio=1.40 / aq=1:1.00 / aq-sensitivity=10.00 / aq-factor=1.00:1.00:1.00 / aq2=0 / aq3=0
Language : English

Audio #1
ID : 2
Format : AC-3
Format/Info : Audio Coding 3
Mode extension : CM (complete main)
Codec ID : A_AC3
Duration : 1h 41mn
Bit rate mode : Constant
Bit rate : 384 Kbps
Channel(s) : 2 channels
Channel positions : Front: L R
Sampling rate : 48.0 KHz
Bit depth : 16 bits
Compression mode : Lossy
Stream size : 278 MiB (10%)
Title : Чистый звук
Language : Russian

Audio #2
ID : 3
Format : AC-3
Format/Info : Audio Coding 3
Mode extension : CM (complete main)
Codec ID : A_AC3
Duration : 1h 41mn
Bit rate mode : Constant
Bit rate : 448 Kbps
Channel(s) : 6 channels
Channel positions : Front: L C R, Side: L R, LFE
Sampling rate : 48.0 KHz
Bit depth : 16 bits
Compression mode : Lossy
Stream size : 324 MiB (11%)
Language : English

Text
ID : 4
Format : UTF-8
Codec ID : S_TEXT/UTF8
Codec ID/Info : UTF-8 Plain Text
Language : English

Menu
00:00:00.000 : :Chapter 01
00:03:10.815 : :Chapter 03
00:05:14.313 : :Chapter 05
00:08:49.362 : :Chapter 07
00:13:02.239 : :Chapter 09
00:17:36.305 : :Chapter 11
00:19:19.408 : :Chapter 13
00:22:30.348 : :Chapter 15
00:26:48.690 : :Chapter 17
00:29:00.155 : :Chapter 19
00:30:59.691 : :Chapter 21
00:33:46.566 : :Chapter 23
00:36:34.191 : :Chapter 25
00:39:20.232 : :Chapter 27
00:41:32.656 : :Chapter 29
00:45:05.119 : :Chapter 31
00:47:23.090 : :Chapter 33
00:49:58.161 : :Chapter 35
00:52:05.455 : :Chapter 37
00:55:38.918 : :Chapter 39
00:58:10.904 : :Chapter 41
01:02:11.394 : :Chapter 43
01:04:38.082 : :Chapter 45
01:07:03.936 : :Chapter 47
01:09:18.195 : :Chapter 49
01:10:21.342 : :Chapter 51
01:15:17.763 : :Chapter 53
01:17:00.157 : :Chapter 55
01:21:41.855 : :Chapter 57
01:25:24.619 : :Chapter 59
01:29:42.710 : :Chapter 61
01:32:27.959 : :Chapter 63
01:41:10.981 : :Chapter 64



[*]Автор рипа: Vikosol



   Похожие торренты   Торрент   Размер 
В этой теме нет новых непрочитанных сообщений. Рио 2 / Rio 2 (2014) BDRemux 1080p от Vikosol | Чистый звук

322 | 77

20.5 ГБ

В этой теме нет новых непрочитанных сообщений. Оно / It Follows (2014) BDRip 720p | Чистый звук

877 | 71

5.46 ГБ

В этой теме нет новых непрочитанных сообщений. Рио 2 / Rio 2 (2014) BDRip 720p | Чистый звук

674 | 10

3.54 ГБ

В этой теме нет новых непрочитанных сообщений. Рио 2 / Rio 2 (2014) BDRip 720p | Чистый звук

2705 | 325

4.64 ГБ

В этой теме нет новых непрочитанных сообщений. Рио 2 / Rio 2 (2014) BDRip 1080p | Чистый звук

1965 | 274

8.19 ГБ

В этой теме нет новых непрочитанных сообщений. Заложница 3 / Taken 3 (2014) BDRip-AVC | Чистый звук

311 | 16

3.16 ГБ

В этой теме нет новых непрочитанных сообщений. Ной / Noah (2014) BDRip 1080p | D | Чистый звук

3348 | 1124

12.99 ГБ




Вы не можете начинать темы
Вы не можете отвечать на сообщения
Вы не можете редактировать свои сообщения
Вы не можете удалять свои сообщения
Вы не можете добавлять вложения

Перейти:  
Для Мосгорсуда, Роскомнадзора и рекламодателей: mosgorsud-torrent[собачка]yandex.ru
 Вход
ppkBB3cker v.2 © 2008-2014 @ PPK
[ Time : 0.046s | 15 Queries | GZIP : Off ]

cron