img image001 image001 image001 image001 image001 image001 image001 image001 image001 image001 image001 image001 image001 image001 image001 image001

Planets Sun Sun Sun
Статистика раздачи
Автор: Nickolas3434 | Размер: 697.81 МБ | Добавлен: 30 июн 2014
Раздают: 588    Качают: 53
Скачать торрент
Скачать торрент
Описание торрента

СообщениеДобавлено: 30 июн 2014 

Информация о фильме
Название: Рио 2
Оригинальное название: Rio 2
Год выпуска: 2014
Жанр: Мультфильм, комедия, приключения, семейный
Режиссер: Карлос Салдана
В ролях: Энн Хэтэуэй, Лесли Манн, Джейми Фокс, Джесси Айзенберг, Родриго Санторо, Энди Гарсиа, Трэйси Морган, Уилл Ай Эм, Джемейн Клемент, Кристин Ченоуэт
Блю, Джевел и их трое детей живут счастливой жизнью в волшебном городе Рио-де-Жанейро. Когда Джевел решает, что их детям нужно научиться жить как настоящим птицам, она настаивает на авантюрной поездке в дебри реки Амазонки. Там, пытаясь вписаться в новое окружение, Блю начинает беспокоиться, что может потерять Джевел и детей, идущих на зов дикой природы.



Выпущено: США, 20th Century Fox Animation, Blue Sky Studios
Продолжительность: 01:30:52
Озвучивание: Дублированное [Чистый звук]

Файл
Формат: AVI
Качество: HDRip
Видео: XviD, 830 kb/s, 640x272
Аудио: MP3, 128 kb/s (2 ch)
Размер: 700 MB
Скачать: Сэмпл


General
Complete name : /Rio.2.2014.D.HDRip.700MB.avi
Format : AVI
Format/Info : Audio Video Interleave
File size : 698 MiB
Duration : 1h 41mn
Overall bit rate : 964 Kbps
Writing application : VirtualDubModRus 1.5.10.2 (build 2542/release)
Writing library : VirtualDubMod build 2542/release

Video
ID : 0
Format : MPEG-4 Visual
Format profile : Advanced Simple@L5
Format settings, BVOP : 2
Format settings, QPel : No
Format settings, GMC : No warppoints
Format settings, Matrix : Default (H.263)
Muxing mode : Packed bitstream
Codec ID : XVID
Codec ID/Hint : XviD
Duration : 1h 41mn
Bit rate : 827 Kbps
Width : 640 pixels
Height : 272 pixels
Display aspect ratio : 2.35:1
Frame rate : 23.976 fps
Color space : YUV
Chroma subsampling : 4:2:0
Bit depth : 8 bits
Scan type : Progressive
Compression mode : Lossy
Bits/(Pixel*Frame) : 0.198
Stream size : 598 MiB (86%)
Writing library : XviD 65

Audio
ID : 1
Format : MPEG Audio
Format version : Version 1
Format profile : Layer 3
Codec ID : 55
Codec ID/Hint : MP3
Duration : 1h 41mn
Bit rate mode : Constant
Bit rate : 128 Kbps
Channel(s) : 2 channels
Sampling rate : 48.0 KHz
Compression mode : Lossy
Stream size : 92.6 MiB (13%)
Alignment : Aligned on interleaves
Interleave, duration : 42 ms (1.00 video frame)
Interleave, preload duration : 504 ms
Writing library : LAME3.99r
Encoding settings : -m s -V 4 -q 2 -lowpass 17 -b 128




   Похожие торренты   Торрент   Размер 
В этой теме нет новых непрочитанных сообщений. Рио 2 / Rio 2 (2014) HDRip | Чистый звук

6655 | 412

1.37 ГБ

В этой теме нет новых непрочитанных сообщений. Оно / It Follows (2014) HDRip | Чистый звук

4439 | 383

1.45 ГБ

В этой теме нет новых непрочитанных сообщений. Оно / It Follows (2014) HDRip-AVC от ExKinoRay | Чистый звук

370 | 12

1.77 ГБ

В этой теме нет новых непрочитанных сообщений. Оно / It Follows (2014) HDRip от Scarabey | Чистый звук

412 | 28

1.4 ГБ

В этой теме нет новых непрочитанных сообщений. Оно / It Follows (2014) HDRip от Scarabey | Чистый звук

188 | 17

745.49 МБ

В этой теме нет новых непрочитанных сообщений. Заложница 3 / Taken 3 (2014) HDRip | Чистый звук

465 | 21

1.43 ГБ

В этой теме нет новых непрочитанных сообщений. Рио 2 / Rio 2 (2014) HDRip от Scarabey | Чистый звук

1788 | 201

1.45 ГБ




Вы не можете начинать темы
Вы не можете отвечать на сообщения
Вы не можете редактировать свои сообщения
Вы не можете удалять свои сообщения
Вы не можете добавлять вложения

Перейти:  
 Вход
ppkBB3cker v.2 © 2008-2014 @ PPK
[ Time : 0.022s | 16 Queries | GZIP : Off ]

cron