img image001 image001 image001 image001 image001 image001 image001 image001 image001 image001 image001 image001 image001 image001 image001

Planets Sun Sun Sun
Статистика раздачи
Автор: Nickolas3434 | Размер: 987.65 МБ | Добавлен: 30 июн 2014
Раздают: 105    Качают: 19
Скачать торрент
Скачать торрент
Описание торрента

СообщениеДобавлено: 30 июн 2014 

Информация о фильме
Название: Аватар: Легенда о Корре (Книга 3 - Перемены.)
Оригинальное название: The Legend of Korra
Год выхода: 2014
Жанр: мультфильм, фэнтези, боевик, приключения, семейный
Режиссер: Хоаким Дос Сантос / Joaquim Dos Santos, Ки Хьюн Рю / Ki Hyun Ryu
В ролях: Джанет Вэрни, Ди Брэдли Бейкер, Дэвид Фаустино, П.Дж. Бирн, Дж.К. Симмонс, Джефф Беннетт, Сейшелл Гэбриел, Дарси Роуз Бернс, Стивен Блум, Логан Уэллс
Роли озвучивали: Тимиркан Сиюхов и Маргарита Щелкунова

О фильме: Мир вступает в новую эру! Гармоническое сближение вызвало сдвиг в энергетическом поле планеты, а Республиканский город спустя недели всё ещё не оправился после битвы Корры и УнаВаату. Весь город зарос и превратился в джунгли, которые новоприбывшие духи считают своим домом. Но не ждут ли наш город ещё какие-то перемены?

Продолжительность: 3 х ~00:22:00
Перевод: Любительский (двухголосый) [LE-Production]
Субтитры: отсутствуют

Файл
Формат: MP4
Качество: HDTVRip
Видео: 1280 x 720 (16:9), 29.970 fps, 23.976 fps, AVC (x264), High@L3.0, 1818 kbps avg, 0.066 bit/pixel
Аудио: 48 kHz, AAC, 2 ch, 256 kbps avg

Релиз от:

01 - Глоток свежего воздуха (A Breath of Fresh Air)
02 - Перерождение (Rebirth)
03 - Царица царства Земли (The Earth Queen)
04 - (In Harm's Way)
05 - (The Metal Clan)
06 - (Old Wounds)

Общее
Полное имя : The.Legend.of.Korra.S03.HDTVRip.le-productionThe.Legend.of.Korra.S03E01.le-production.mp4
Формат : MPEG-4
Профиль формата : Base Media
Идентификатор кодека : isom
Размер файла : 330 Мбайт
Продолжительность : 22 м.
Общий поток : 2078 Кбит/сек
Дата кодирования : UTC 2014-06-27 11:38:35
Дата пометки : UTC 2014-06-27 11:38:35
Программа кодирования : Yamb 2.1.0.0 [http://yamb.unite-video.com]

Видео
Идентификатор : 1
Формат : AVC
Формат/Информация : Advanced Video Codec
Профиль формата : High@L3.0
Параметр CABAC формата : Да
Параметр ReFrames формата : 4 кадры
Идентификатор кодека : avc1
Идентификатор кодека/Информация : Advanced Video Coding
Продолжительность : 22 м.
Вид битрейта : Переменный
Битрейт : 1818 Кбит/сек
Максимальный битрейт : 6119 Кбит/сек
Ширина : 1280 пикс.
Высота : 720 пикс.
Соотношение сторон : 16:9
Режим частоты кадров : Постоянный
Частота кадров : 29,970 кадр/сек
Цветовое пространство : YUV
Подвыборка цветности : 4:2:0
Битовая глубина : 8 бит
Тип развёртки : Прогрессивная
Бит/(Пиксели*Кадры) : 0.066
Размер потока : 288 Мбайт (87%)
Библиотека кодирования : x264 core 130 r2273 b3065e6
Настройки программы : cabac=1 / ref=1 / deblock=1:0:0 / analyse=0x3:0x3 / me=dia / subme=1 / psy=1 / psy_rd=1.00:0.00 / mixed_ref=0 / me_range=16 / chroma_me=1 / trellis=0 / 8x8dct=1 / cqm=0 / deadzone=21,11 / fast_pskip=1 / chroma_qp_offset=0 / threads=12 / lookahead_threads=2 / sliced_threads=0 / nr=0 / decimate=1 / interlaced=0 / bluray_compat=0 / constrained_intra=0 / bframes=3 / b_pyramid=2 / b_adapt=1 / b_bias=0 / direct=1 / weightb=1 / open_gop=0 / weightp=1 / keyint=250 / keyint_min=25 / scenecut=40 / intra_refresh=0 / rc=crf / mbtree=0 / crf=21.0 / qcomp=0.60 / qpmin=0 / qpmax=69 / qpstep=4 / ip_ratio=1.40 / pb_ratio=1.30 / aq=1:1.00
Дата кодирования : UTC 2014-06-28 08:14:57
Дата пометки : UTC 2014-06-27 11:38:38

Аудио
Идентификатор : 2
Формат : AAC
Формат/Информация : Advanced Audio Codec
Профиль формата : LC
Идентификатор кодека : 40
Продолжительность : 22 м.
Вид битрейта : Переменный
Битрейт : 256 Кбит/сек
Максимальный битрейт : 261 Кбит/сек
Канал(ы) : 2 канала(ов)
Расположение каналов : Front: L R
Частота : 48,0 КГц
Метод сжатия : С потерями
Размер потока : 40,6 Мбайт (12%)
Язык : English
Дата кодирования : UTC 2014-06-27 11:38:37
Дата пометки : UTC 2014-06-27 11:38:38





   Похожие торренты   Торрент   Размер 
В этой теме нет новых непрочитанных сообщений. Аватар: Легенда о Корре / The Legend of Korra [03х01-06 из 12] (2014) HDTVRip 720p | LE-Production

66 | 60

1.74 ГБ

В этой теме нет новых непрочитанных сообщений. Аватар: Легенда о Корре / The Legend of Korra [03х01-08 из 12] (2014) HDTVRip 720p | LE-Production

206 | 92

2.41 ГБ

В этой теме нет новых непрочитанных сообщений. Аватар: Легенда о Корре / The Legend of Korra [03х01-07 из 12] (2014) HDTVRip 720p | LE-Production

136 | 111

2.01 ГБ

В этой теме нет новых непрочитанных сообщений. Аватар: Легенда о Корре / The Legend of Korra [03х01-04 из 12] (2014) HDTVRip 720p | LE-Production

158 | 75

1.27 ГБ

В этой теме нет новых непрочитанных сообщений. Аватар: Легенда о Корре / The Legend of Korra [03х01-05 из 12] (2014) HDTVRip 720p | LE-Production

78 | 34

1.57 ГБ

В этой теме нет новых непрочитанных сообщений. Аватар: Легенда о Корре / The Legend of Korra [03х01-05 из 12] (2014) HDTVRip 720p | LE-Production

109 | 84

1.43 ГБ

В этой теме нет новых непрочитанных сообщений. Аватар: Легенда о Корре / The Legend of Korra [03х01-09 из 13] (2014) WEBRip 720p | LE-Production

53 | 84

4.99 ГБ




Вы не можете начинать темы
Вы не можете отвечать на сообщения
Вы не можете редактировать свои сообщения
Вы не можете удалять свои сообщения
Вы не можете добавлять вложения

Перейти:  
Для Мосгорсуда, Роскомнадзора и рекламодателей: mosgorsud-torrent[собачка]yandex.ru
 Вход
ppkBB3cker v.2 © 2008-2014 @ PPK
[ Time : 3.713s | 16 Queries | GZIP : Off ]

Торрент трекер RUTOR.IN, Не можете зайти на rutor.org? Какой новый адрес рутор? Какое зеркало рутор? Не работает rutor.org и зеркала? Тогда наш торрент специально для вас. Rutor.in неофициальное зеркало rutor. В случае если у Вас заблокирован rutor или вдруг Вы не можете на него зайти, то Вы без труда сможете скачать бесплатно и без рекламы последние новинки кино, игр, сериалов и прочего у нас, на Rutor.in. Не нужно использовать прокси, чтобы зайти на рутор, достаточно воспользоваться нашим ресурсом. Все новые фильмы, игры, сериалы, книги и музыка за 2013 и 2014 годы через торрент бесплатно. Скачивайте фильмы в хорошем качестве, игры для пк, xbox, playstation без регистрации. У нас вы найдете новые Зарубежные сериалы и Русские сериалы 2013, 2014, 2015 годов. Оставайтесь с нами, качайте любимые фильмы, игры, сериалы, книги и музыку.