img image001 image001 image001 image001 image001 image001 image001 image001 image001 image001 image001 image001 image001 image001 image001

Planets Sun Sun Sun
Статистика раздачи
Автор: Nickolas3434 | Размер: 4.43 ГБ | Добавлен: 02 июл 2014
Раздают: 1040    Качают: 170
Скачать торрент
Скачать торрент
Описание торрента

СообщениеДобавлено: 02 июл 2014 

Информация о фильме
Название: Пингвиненок Пороро
Оригинальное название: Pororo the Little Penguin
Год выхода: 2007
Жанр: мультфильм, детский
Режиссер: Иль Хо Ким

О фильме:
Где-то далеко-далеко, в месте, о котором люди даже не слышали, есть лес, весь покрытый снегом и льдом. В самой глубине этого леса прячется деревушка, в которой живут маленькие зверята. Солнце там светит теплее всего, а холодный ветер совсем не кусает за нос. Обитатели деревни — очень любознательный и шаловливый пингвиненок Пороро, добродушный белый медведь Поби, хитрый и любопытный рыжий лисенок Эдди, застенчивая и скромная малышка-бобренок Лупи и Кронг, маленький товарищ Пороро. У всех у них очень разные характеры и интересы. Иногда зверята ссорятся, но обычно им очень весело проводить время вместе. А главное — все они дорожат своей дружбой и всегда рады помочь друг другу.
01. Мы друзья! / We're Friends
02. Всё в порядке! / It's All Right
03. Холодная рыбалка / Ice Fishing
04. Гляди веселей! / Smile, Smile, Smile!
05. Что с моим лицом / What Happen to My Face!
06. Апчхи, я простудился! / Achoo, I Got a Cold
07. Хочу летать! / Dream of Flying
08. Кто трогал моего снеговика / Who Touched My Snowman
09. В поисках сокровищ! / Treasure Hunting
10. Кронг — озорник! / Crong the Troublemaker
11. Давайте играть вместе! / Let’s play together
12. Хочу луну / Can’t I have the moon?
13. Тайна Эдди / Eddy’s secret
14. Волшебная флейта / A Magic flute
15. Снежная картина / Snow canvas
16. Поиграем / Wanna have a round?
17. Рождество Кронга / Crong’s Christmas
18. Лупи, у тебя получится! / Loopy, you can do it!
19. Эдди и телескоп / Eddy and telescope
20. Головоломка / A jigsaw puzzle
21. Воздушный змей / Kite-flying
22. Спасти Лупи! / Save Loopy
23. Путешествие в поезде / Train adventure
24. Будь осторожен! / Be careful
25. Пороро и одуванчик / Pororo and Dandelion
26. Лекарство от икоты / Hiccup cure
27. Пороро знакомится с китом / Pororo meets a whale
28. Игра в магниты / Magnetic play
29. Будем танцевать! / Dancing together
30. Живот болит / Stomach ache!
31. Эдди — изобретатель / Eddy the great inventor
32. Скажи правду / To Tell The Truth...
33. Эдди летит на Луну / Eddy goes to the moon
34. Коробка конфет / Bonbon box
35. Странная машина / Eddy's new car
36. Готовим попкорн / Cooking Popcorn
37. Пороро и призраки / Mystical Ghost Light
38. Сюрприз для Пороро / A surprise box
39. Я хочу спать! / I want to sleep
40. Коробка с секретом / Pororo’s surprise party
41. Я — суперпингвин! / I am super penguin
42. У Поби бессонница / Sleepless Poby
43. Прости, Кронг! / Crong, I’m sorry
44. Новый друг Лупи / Loopy has a new friend
45. Пороро заблудился / Pororo gets lost
46. Лупи — предсказательница / Fortune teller Loopy
47. Воздушный шар Эдди / Eddy's Balloon
48. День в деревне Пороро / A day of Pororo's Town
49. Волшебная лампа / Magic lamp
50. Маленькие повара / Fun cooking
51. Подарок Лупи / Loopy’s gift
52. Волшебная банка / A Magic Can

Официальный сайт

Страна: Корея Южная
Студия: Iconix Entertainment
Продолжительность: 52 x ~ 00:07:10
Перевод: Дублированный

Файл
Кодек: XviD / AC3
Качество: SATRip
Видео: MPEG4, XviD, 720x544 (4:3), 25.000 fps, 1 499 Kbps (0.153 bit/pixel)
Звук: AC-3, 48.0 KHz, 2 ch, 192 Kbps, CBR

General
Complete name : /Пингвинёнок Пороро.2007.XviD.SATRip.Thunder/01. Мы друзья!.avi
Format : AVI
Format/Info : Audio Video Interleave
File size : 87.2 MiB
Duration : 7mn 10s
Overall bit rate : 1 701 Kbps
Director : SATRip by Thunder
Writing application : VirtualDubMod 1.5.10.3 | www.virtualdub-fr.org || (build 2550/release)
Original source form/Name : Cartoon

Video
ID : 0
Format : MPEG-4 Visual
Format profile : Advanced Simple@L5
Format settings, BVOP : 2
Format settings, QPel : No
Format settings, GMC : No warppoints
Format settings, Matrix : Default (H.263)
Codec ID : XVID
Codec ID/Hint : XviD
Duration : 7mn 10s
Bit rate : 1 499 Kbps
Width : 720 pixels
Height : 544 pixels
Display aspect ratio : 4:3
Frame rate : 25.000 fps
Color space : YUV
Chroma subsampling : 4:2:0
Bit depth : 8 bits
Scan type : Progressive
Compression mode : Lossy
Bits/(Pixel*Frame) : 0.153
Stream size : 76.8 MiB (88%)
Writing library : XviD 1.2.1 (UTC 2008-12-04)

Audio
ID : 1
Format : AC-3
Format/Info : Audio Coding 3
Mode extension : CM (complete main)
Format settings, Endianness : Big
Codec ID : 2000
Duration : 7mn 10s
Bit rate mode : Constant
Bit rate : 192 Kbps
Channel(s) : 2 channels
Channel positions : Front: L R
Sampling rate : 48.0 KHz
Bit depth : 16 bits
Compression mode : Lossy
Stream size : 9.84 MiB (11%)
Alignment : Split accross interleaves
Interleave, duration : 40 ms (1.00 video frame)
Interleave, preload duration : 500 ms



   Похожие торренты   Торрент   Размер 
В этой теме нет новых непрочитанных сообщений. Пингвиненок Пороро / Pororo the Little Penguin [02x01-43] (2007) SATRip | D

169 | 43

3.6 ГБ

В этой теме нет новых непрочитанных сообщений. Пингвиненок Пороро / Pororo the Little Penguin [02x01-52] (2007) SATRip | D

630 | 110

4.36 ГБ

В этой теме нет новых непрочитанных сообщений. Пингвиненок Пороро / Pororo the Little Penguin [02x01-22] (2007) SATRip | D

246 | 94

1.84 ГБ

В этой теме нет новых непрочитанных сообщений. Пингвиненок Пороро / Pororo the Little Penguin [02x01-31] (2007) SATRip | D

54 | 83

2.6 ГБ

В этой теме нет новых непрочитанных сообщений. Пингвиненок Пороро / Pororo The Little Penguin [01x01-52 из 52] (2007) WEB-DLRip от -merci- | D

177 | 14

4.45 ГБ

В этой теме нет новых непрочитанных сообщений. Пингвиненок Пороро / Pororo The Little Penguin [02x01-52 из 52] (2007) WEB-DLRip от -merci- | D

33 | 7

4.38 ГБ

В этой теме нет новых непрочитанных сообщений. Пингвиненок Пороро / Pororo The Little Penguin [03x01-52 из 52] (2007) WEB-DLRip от -merci- | D

133 | 12

4.81 ГБ




Вы не можете начинать темы
Вы не можете отвечать на сообщения
Вы не можете редактировать свои сообщения
Вы не можете удалять свои сообщения
Вы не можете добавлять вложения

Перейти:  
Для Мосгорсуда, Роскомнадзора и рекламодателей: mosgorsud-torrent[собачка]yandex.ru
 Вход
ppkBB3cker v.2 © 2008-2014 @ PPK
[ Time : 0.029s | 15 Queries | GZIP : Off ]

Торрент трекер RUTOR.IN, Не можете зайти на rutor.org? Какой новый адрес рутор? Какое зеркало рутор? Не работает rutor.org и зеркала? Тогда наш торрент специально для вас. Rutor.in неофициальное зеркало rutor. В случае если у Вас заблокирован rutor или вдруг Вы не можете на него зайти, то Вы без труда сможете скачать бесплатно и без рекламы последние новинки кино, игр, сериалов и прочего у нас, на Rutor.in. Не нужно использовать прокси, чтобы зайти на рутор, достаточно воспользоваться нашим ресурсом. Все новые фильмы, игры, сериалы, книги и музыка за 2013 и 2014 годы через торрент бесплатно. Скачивайте фильмы в хорошем качестве, игры для пк, xbox, playstation без регистрации. У нас вы найдете новые Зарубежные сериалы и Русские сериалы 2013, 2014, 2015 годов. Оставайтесь с нами, качайте любимые фильмы, игры, сериалы, книги и музыку.