img image001 image001 image001 image001 image001 image001 image001 image001 image001 image001 image001 image001 image001 image001 image001

Planets Sun Sun Sun
Статистика раздачи
Автор: Nickolas3434 | Размер: 4.56 ГБ | Добавлен: 02 июл 2014
Раздают: 152    Качают: 146
Скачать торрент
Скачать торрент
Описание торрента

СообщениеДобавлено: 02 июл 2014 

Информация о фильме
Название: Пчелиные истории
Оригинальное название: The Hive
Год выхода: 2010
Жанр: мультфильм, семейный, детский, приключения
Режиссер: Ray Merritt
В ролях: Део Симкокс, Хейдон Доунинг, Тереза Галлахер, Ясмин Гаррад, Саймон Гринхолл, Пенни Халл, Элла Кеньон, Дункан Уисби, Роберт Уолстенхолм

О фильме:
Этот жужжащий, жужжащий мир! Пчелиный улей - дом для счастливого и дружного пчелиного семейства. Папа-пчела, Мама-пчела и их дети Базз и Руби - они похожи на самую обычную семью, за исключением того, что они маленькие, полосатые и постоянно жужжат! В школе Медовой росы готовятся отмечать юбилей, проводят день спорта и урок по оказанию первой помощи. Базз пробует себя в качестве почтальона, фокусника и садовода, отправляется с Папой-пчелой в поход и помогает Маме-пчеле делать покупки через Интернет. Руби помогает брату справиться с маленькими неприятностями. И вместе они ждут пополнения в пчелином семействе…

01. Базз - почтальон
02. Королевский визит
03. Детская комната
04. Базз - волшебник
05. Испуганная пчела
06. Базз спешит на помощь
07. Компьютеризация
08. День спорта
09. День рождения
10. Плюшевый мишка Базза
11. Сад Базза
12. Ты не слышал?
13. Колыбельная для пчелки
14. Преданная пчелка
15. Ветреный день
16. Вымышленная пчелка
17. Староста класса
18. Лучший друг пчелы
19. Разумная пчелка
20. Базз наводит чистоту
21. Сонная пчелка
22. Попрыгунчик идет в школу

Официальный сайт

Страна: Великобритания
Студия: Disney Junior, DQ Entertainment, Lupus Films, Monumental Productions
Продолжительность: ~00:07:00 серия
Перевод: Дублированный

Файл
Кодек: h.264 / AC3
Качество: WEBRip 1080p
Видео: AVC, 1920x1080 (16:9), 25.000 fps, 3 855 Kbps (0.074 bit/pixel)
Звук: AC-3, 48.0 KHz, 2 ch, 192 Kbps, CBR (Russian)

General
Unique ID : 216287149783337162964261554530851783136 (0xA2B763CC4089480AA406EC56C3A081E0)
Complete name : /Пчелиные Истории.1080p.x264.-merci/01. Базз - почтальон.1080p.x264.-merci.mkv
Format : Matroska
Format version : Version 2
File size : 212 MiB
Duration : 7mn 20s
Overall bit rate : 4 046 Kbps
Movie name : Пчелиные Истории / The Hive / 2010-2012 / - merci -
Encoded date : UTC 2014-04-24 08:23:54
Writing application : mkvmerge v5.8.0 ('No Sleep / Pillow') built on Sep 2 2012 15:37:04
Writing library : libebml v1.2.3 + libmatroska v1.3.0

Video
ID : 1
Format : AVC
Format/Info : Advanced Video Codec
Format profile : High@L4.0
Format settings, CABAC : Yes
Format settings, ReFrames : 4 frames
Codec ID : V_MPEG4/ISO/AVC
Duration : 7mn 20s
Bit rate : 3 855 Kbps
Width : 1 920 pixels
Height : 1 080 pixels
Display aspect ratio : 16:9
Frame rate : 25.000 fps
Color space : YUV
Chroma subsampling : 4:2:0
Bit depth : 8 bits
Scan type : Progressive
Bits/(Pixel*Frame) : 0.074
Stream size : 198 MiB (93%)
Title : 01. Базз - почтальон.1080p.x264.-merci
Writing library : x264 core 125 r2208 d9d2288
Encoding settings : cabac=1 / ref=2 / deblock=1:-2:-2 / analyse=0x3:0x133 / me=umh / subme=9 / psy=1 / psy_rd=1.05:0.15 / mixed_ref=1 / me_range=32 / chroma_me=1 / trellis=2 / 8x8dct=1 / cqm=0 / deadzone=21,11 / fast_pskip=0 / chroma_qp_offset=-3 / threads=6 / lookahead_threads=1 / sliced_threads=0 / nr=0 / decimate=0 / interlaced=0 / bluray_compat=0 / constrained_intra=0 / bframes=2 / b_pyramid=2 / b_adapt=2 / b_bias=0 / direct=3 / weightb=1 / open_gop=0 / weightp=2 / keyint=250 / keyint_min=25 / scenecut=40 / intra_refresh=0 / rc=2pass / mbtree=0 / bitrate=3855 / ratetol=1.0 / qcomp=0.75 / qpmin=0 / qpmax=69 / qpstep=4 / cplxblur=20.0 / qblur=0.5 / ip_ratio=1.40 / pb_ratio=1.30 / aq=2:0.80
Language : English
Default : Yes
Forced : No
Color primaries : BT.709-5, BT.1361, IEC 61966-2-4, SMPTE RP177
Transfer characteristics : BT.709-5, BT.1361
Matrix coefficients : BT.709-5, BT.1361, IEC 61966-2-4 709, SMPTE RP177

Audio
ID : 2
Format : AC-3
Format/Info : Audio Coding 3
Mode extension : CM (complete main)
Format settings, Endianness : Big
Codec ID : A_AC3
Duration : 7mn 20s
Bit rate mode : Constant
Bit rate : 192 Kbps
Channel(s) : 2 channels
Channel positions : Front: L R
Sampling rate : 48.0 KHz
Bit depth : 16 bits
Compression mode : Lossy
Stream size : 10.1 MiB (5%)
Title : Dub
Language : Russian
Default : Yes
Forced : No



   Похожие торренты   Торрент   Размер 
В этой теме нет новых непрочитанных сообщений. Пчелиные истории / The Hive [01x01-21] (2010) WEBRip 1080p | D

256 | 48

4.35 ГБ

В этой теме нет новых непрочитанных сообщений. Пчелиные истории / The Hive [S01] (2010) WEBRip 1080p | D

137 | 82

5.39 ГБ

В этой теме нет новых непрочитанных сообщений. Пчелиные истории / The Hive [S01] (2010) DVD5 | Лицензия

18 | 2

3.37 ГБ

В этой теме нет новых непрочитанных сообщений. Пчелиные истории / The Hive [S01] (2010) DVDRip | Лицензия

11 | 2

1 ГБ

В этой теме нет новых непрочитанных сообщений. Истории танкистов [01x01-16] (2013) WEBRip 720р

156 | 7

245.43 МБ

В этой теме нет новых непрочитанных сообщений. Переломные моменты истории / The Crossroads of History [01x01-04 из 06] (2016) WEBRip 720p от Ozz | P2

17 | 2

515.27 МБ

В этой теме нет новых непрочитанных сообщений. Переломные моменты истории / The Crossroads of History [01x01-06 из 07] (2016) WEBRip 720p от Ozz | P2

0 | 0

713.28 МБ




Вы не можете начинать темы
Вы не можете отвечать на сообщения
Вы не можете редактировать свои сообщения
Вы не можете удалять свои сообщения
Вы не можете добавлять вложения

Перейти:  
Для Мосгорсуда, Роскомнадзора и рекламодателей: mosgorsud-torrent[собачка]yandex.ru
 Вход
ppkBB3cker v.2 © 2008-2014 @ PPK
[ Time : 0.037s | 15 Queries | GZIP : Off ]

Торрент трекер RUTOR.IN, Не можете зайти на rutor.org? Какой новый адрес рутор? Какое зеркало рутор? Не работает rutor.org и зеркала? Тогда наш торрент специально для вас. Rutor.in неофициальное зеркало rutor. В случае если у Вас заблокирован rutor или вдруг Вы не можете на него зайти, то Вы без труда сможете скачать бесплатно и без рекламы последние новинки кино, игр, сериалов и прочего у нас, на Rutor.in. Не нужно использовать прокси, чтобы зайти на рутор, достаточно воспользоваться нашим ресурсом. Все новые фильмы, игры, сериалы, книги и музыка за 2013 и 2014 годы через торрент бесплатно. Скачивайте фильмы в хорошем качестве, игры для пк, xbox, playstation без регистрации. У нас вы найдете новые Зарубежные сериалы и Русские сериалы 2013, 2014, 2015 годов. Оставайтесь с нами, качайте любимые фильмы, игры, сериалы, книги и музыку.